<?xml version="1.0" encoding="UTF-8" standalone="no"?> <svg xmlns="http://www.w3.org/2000/svg" xmlns:xlink="http://www.w3.org/1999/xlink" version="1.1"><metadata> Created by FontForge 20201107 at Sat Jul 18 00:43:47 2015 By Unknown (c) 1990-2006 Apple Computer Inc. (c) 1981 Linotype AG (c) 1990-91 Type Solutions Inc. </metadata><defs><font id="Helvetica"><glyph glyph-name="fi" unicode="fi" d="M216 1398q63 92 243 92q17 0 35 -1t41 -3v-164q-28 2 -40.5 2.5t-23.5 0.5q-82 0 -98 -42.5t-16 -216.5h178v-142h-180v-924h-178v924h-149v142h149v168q4 112 39 164zM708 1265v204h180v-204h-180zM708 1066h180v-1066h-180v1066z"></glyph><glyph glyph-name="fl" unicode="fl" d="M884 0h-180v1469h180v-1469zM355 0h-178v924h-149v142h149v190q0 119 73.5 176.5t196.5 57.5q24 0 43.5 -1.5t44.5 -5.5v-161q-28 2 -40.5 2.5t-23.5 0.5q-76 0 -101 -44q-15 -25 -15 -82v-133h180v-142h-180v-924z"></glyph><glyph glyph-name=".notdef" d="M66 0v1469h1166v-1469h-1166zM1048 184v1101h-798v-1101h798z"></glyph><glyph glyph-name=".null"></glyph><glyph glyph-name=".null"></glyph><glyph glyph-name=".null"></glyph><glyph glyph-name="nonmarkingreturn" unicode="&#9;"></glyph><glyph glyph-name="nonmarkingreturn" unicode="&#13;"></glyph><glyph glyph-name="nonmarkingreturn" unicode="&#10;"></glyph><glyph glyph-name="space" unicode=" "></glyph><glyph glyph-name="exclam" unicode="!" d="M237 1469h203v-483l-49 -636h-102l-52 636v483zM237 208h199v-208h-199v208z"></glyph><glyph glyph-name="quotedbl" unicode="&quot;" d="M606 1469l-30 -588h-121l-31 588h182zM263 1469l-29 -588h-121l-31 588h181z"></glyph><glyph glyph-name="numbersign" unicode="#" d="M30 561h233l94 344h-232l31 116h232l119 448h149l-121 -448h221l123 448h147l-121 -448h232l-31 -116h-232l-95 -344h233l-31 -116h-230l-123 -445h-147l121 445h-223l-119 -445h-149l121 445h-232zM630 561l95 344h-221l-92 -344h218z"></glyph><glyph glyph-name="dollar" unicode="$" d="M847 229q34 60 34 139q0 125 -92 190q-53 38 -178 72v-526q171 8 236 125zM337.5 914q65.5 -56 176.5 -78v470q-131 -5 -186.5 -80t-55.5 -157q0 -99 65.5 -155zM203.5 1331q111.5 122 312.5 124v133h95v-131q199 -14 305.5 -117.5t111.5 -273.5h-175q-7 76 -41 131 q-63 101 -201 106v-486q232 -65 315 -122q135 -94 135 -278q0 -266 -173 -378q-96 -62 -277 -82v-194h-95v194q-291 19 -395 206q-57 101 -57 273h177q8 -137 43 -200q62 -113 230 -127v545q-216 41 -319 137t-103 266q0 152 111.5 274z"></glyph><glyph glyph-name="percent" unicode="%" d="M1642 594q102 -102 102 -246t-102 -246t-246 -102q-145 0 -247 102t-102 246t102 246t247 102q144 0 246 -102zM1251 1426h111l-801 -1464h-111zM560.5 894.5q60.5 60.5 60.5 145.5t-60.5 145.5t-146.5 60.5q-85 0 -145.5 -60t-60.5 -146q0 -85 60.5 -145.5t145.5 -60.5 q86 0 146.5 60.5zM661 1286.5q102 -102.5 102 -246.5t-102 -246t-247 -102q-144 0 -246 102t-102 246t102 246.5t246 102.5q145 0 247 -102.5zM1541.5 202.5q60.5 60.5 60.5 145.5t-60.5 145.5t-145.5 60.5q-86 0 -146.5 -60.5t-60.5 -145.5t60.5 -145.5t146.5 -60.5 q85 0 145.5 60.5z"></glyph><glyph glyph-name="ampersand" unicode="&amp;" d="M716 1007q59 68 59 151q0 65 -43 112t-116 47q-111 0 -154 -74q-22 -38 -22 -83q0 -61 33.5 -117t111.5 -145q95 67 131 109zM730 175q80 51 123 114l-332 405q-141 -94 -184 -144q-66 -75 -66 -183q0 -117 85.5 -180t182.5 -63q111 0 191 51zM296.5 997 q-31.5 73 -31.5 141q0 142 96 235.5t257 93.5q153 0 239 -87t86 -208q0 -141 -89 -247q-52 -62 -174 -143l268 -320q27 80 37.5 119.5t21.5 110.5h171q-17 -141 -68 -270.5t-51 -104.5l261 -317h-232l-138 168q-82 -89 -150 -130q-119 -72 -274 -72q-229 0 -333 123.5 t-104 278.5q0 167 101 279q62 68 231 170q-93 107 -124.5 180z"></glyph><glyph glyph-name="quotesingle" unicode="'" d="M338 1469l-33 -588h-116l-33 588h182z"></glyph><glyph glyph-name="parenleft" unicode="(" d="M606 1493q-157 -305 -204 -449q-71 -219 -71 -506q0 -290 81 -530q50 -148 197 -426h-121q-146 228 -181 291t-76 171q-56 148 -78 316q-11 87 -11 166q0 296 93 527q59 147 246 440h125z"></glyph><glyph glyph-name="parenright" unicode=")" d="M71 -418q159 310 205 452q70 215 70 504t-81 529q-50 148 -197 426h121q154 -246 186.5 -303.5t70.5 -158.5q48 -125 68.5 -247t20.5 -235q0 -296 -94 -528q-59 -149 -245 -439h-125z"></glyph><glyph glyph-name="asterisk" unicode="*" d="M450 1469v-223l218 76l40 -111l-218 -71l135 -188l-99 -71l-131 195l-132 -195l-102 71l137 188l-220 71l40 111l216 -78v225h116z"></glyph><glyph glyph-name="plus" unicode="+" d="M92 438v168h436v439h171v-439h436v-168h-436v-438h-171v438h-436z"></glyph><glyph glyph-name="comma" unicode="," d="M170 -209q69 12 97 97q15 45 15 87q0 7 -0.5 12.5t-2.5 12.5h-109v218h214v-202q0 -119 -48 -209t-166 -111v95z"></glyph><glyph glyph-name="hyphen" unicode="-" d="M85 663h502v-185h-502v185z"></glyph><glyph glyph-name="period" unicode="." d="M175 218h209v-218h-209v218z"></glyph><glyph glyph-name="slash" unicode="/" d="M466 1469h152l-466 -1469h-152z"></glyph><glyph glyph-name="zero" unicode="0" d="M956 1203q96 -177 96 -485q0 -292 -87 -483q-126 -274 -412 -274q-258 0 -384 224q-105 187 -105 502q0 244 63 419q118 326 427 326q278 0 402 -229zM775 249q83 124 83 462q0 244 -60 401.5t-233 157.5q-159 0 -232.5 -149.5t-73.5 -440.5q0 -219 47 -352 q72 -203 246 -203q140 0 223 124z"></glyph><glyph glyph-name="one" unicode="1" d="M196 1014v138q195 19 272 63.5t115 210.5h142v-1426h-192v1014h-337z"></glyph><glyph glyph-name="two" unicode="2" d="M140.5 322q66.5 137 259.5 249l192 111q129 75 181 128q82 83 82 190q0 125 -75 198.5t-200 73.5q-185 0 -256 -140q-38 -75 -42 -208h-183q3 187 69 305q117 208 413 208q246 0 359.5 -133t113.5 -296q0 -172 -121 -294q-70 -71 -251 -172l-137 -76q-98 -54 -154 -103 q-100 -87 -126 -193h782v-170h-983q10 185 76.5 322z"></glyph><glyph glyph-name="three" unicode="3" d="M163.5 100.5q-114.5 139.5 -114.5 339.5h188q12 -139 52 -202q70 -113 253 -113q142 0 228 76t86 196q0 148 -90.5 207t-251.5 59q-18 0 -36.5 -0.5t-37.5 -1.5v159q28 -3 47 -4t41 -1q101 0 166 32q114 56 114 200q0 107 -76 165t-177 58q-180 0 -249 -120 q-38 -66 -43 -188h-178q0 160 64 272q110 200 387 200q219 0 339 -97.5t120 -282.5q0 -132 -71 -214q-44 -51 -114 -80q113 -31 176.5 -119.5t63.5 -216.5q0 -205 -135 -334t-383 -129q-254 0 -368.5 139.5z"></glyph><glyph glyph-name="four" unicode="4" d="M677 507v649l-459 -649h459zM680 0v350h-628v176l656 910h152v-929h211v-157h-211v-350h-180z"></glyph><glyph glyph-name="five" unicode="5" d="M253 365q18 -154 143 -213q64 -30 148 -30q160 0 237 102t77 226q0 150 -91.5 232t-219.5 82q-93 0 -159.5 -36t-113.5 -100l-156 9l109 771h744v-174h-609l-61 -398q50 38 95 57q80 33 185 33q197 0 334 -127t137 -322q0 -203 -125.5 -358t-400.5 -155 q-175 0 -309.5 98.5t-150.5 302.5h187z"></glyph><glyph glyph-name="six" unicode="6" d="M933.5 1313.5q94.5 -124.5 94.5 -256.5h-178q-16 85 -51 133q-65 90 -197 90q-151 0 -240 -139.5t-99 -399.5q62 91 156 136q86 40 192 40q180 0 314 -115t134 -343q0 -195 -127 -345.5t-362 -150.5q-201 0 -347 152.5t-146 513.5q0 267 65 453q125 356 457 356 q240 0 334.5 -124.5zM798.5 218.5q70.5 95.5 70.5 225.5q0 110 -63 209.5t-229 99.5q-116 0 -203.5 -77t-87.5 -232q0 -136 79.5 -228.5t220.5 -92.5q142 0 212.5 95.5z"></glyph><glyph glyph-name="seven" unicode="7" d="M1071 1408v-157q-69 -67 -183.5 -233t-202.5 -358q-87 -187 -132 -341q-29 -99 -75 -319h-199q68 410 300 816q137 238 288 411h-792v181h996z"></glyph><glyph glyph-name="eight" unicode="8" d="M743 898.5q67 66.5 67 158.5q0 80 -64 147t-195 67q-130 0 -188 -67t-58 -157q0 -101 75 -158t177 -57q119 0 186 66.5zM775.5 190.5q82.5 67.5 82.5 201.5q0 139 -85 211t-218 72q-129 0 -210.5 -73.5t-81.5 -203.5q0 -112 74.5 -193.5t230.5 -81.5q125 0 207.5 67.5z M195 838q-79 80 -79 208q0 160 116 275t329 115q206 0 323 -108.5t117 -253.5q0 -134 -68 -217q-38 -47 -118 -92q89 -41 140 -94q95 -100 95 -260q0 -189 -127 -320.5t-359 -131.5q-209 0 -353.5 113.5t-144.5 329.5q0 127 62 219.5t184 141.5q-75 32 -117 75z"></glyph><glyph glyph-name="nine" unicode="9" d="M272 346q8 -149 115 -206q55 -30 124 -30q129 0 220 107.5t129 436.5q-60 -95 -148.5 -133.5t-190.5 -38.5q-207 0 -327.5 129t-120.5 332q0 195 119 343t351 148q313 0 432 -282q66 -155 66 -388q0 -263 -79 -466q-131 -338 -444 -338q-210 0 -319 110t-109 276h182z M740.5 710.5q88.5 70.5 88.5 246.5q0 158 -79.5 235.5t-202.5 77.5q-132 0 -209.5 -88.5t-77.5 -236.5q0 -140 68 -222.5t217 -82.5q107 0 195.5 70.5z"></glyph><glyph glyph-name="colon" unicode=":" d="M227 1057h209v-218h-209v218zM227 218h209v-218h-209v218z"></glyph><glyph glyph-name="semicolon" unicode=";" d="M227 -209q70 13 97 93q14 42 14 92q0 5 -0.5 8.5t-1.5 15.5h-109v218h213v-202q0 -107 -31 -179q-52 -118 -182 -141v95zM227 1057h213v-218h-213v218z"></glyph><glyph glyph-name="less" unicode="&lt;" d="M28 606l1169 458v-180l-956 -361l956 -362v-180l-1169 459v166z"></glyph><glyph glyph-name="equal" unicode="=" d="M1135 822v-168h-1043v168h1043zM1135 393v-171h-1043v171h1043z"></glyph><glyph glyph-name="greater" unicode="&gt;" d="M1197 438l-1169 -457v180l955 362l-955 361v180l1169 -458v-168z"></glyph><glyph glyph-name="question" unicode="?" d="M493 208h199v-208h-199v208zM278 1356.5q122 131.5 335 131.5q197 0 315.5 -112.5t118.5 -287.5q0 -106 -43.5 -172t-175.5 -194q-96 -93 -124.5 -157.5t-28.5 -190.5h-178q0 143 34 230.5t149 200.5l80 79q36 34 58 71q40 65 40 135q0 98 -58.5 170t-193.5 72 q-167 0 -231 -124q-36 -69 -41 -199h-178q0 216 122 347.5z"></glyph><glyph glyph-name="at" unicode="@" d="M1207.5 1004.5q-41.5 49.5 -114.5 49.5q-114 0 -197.5 -134.5t-83.5 -267.5q0 -98 43 -149.5t108 -51.5q135 0 210.5 157.5t75.5 284.5q0 62 -41.5 111.5zM406 218q-181 209 -181 483q0 326 220 554q244 254 655 254q356 0 560 -180q191 -170 191 -441 q0 -228 -136.5 -389.5t-305.5 -161.5q-99 0 -146 47.5t-47 114.5q0 11 2 23t5 25q-53 -115 -134 -162.5t-167 -47.5q-123 0 -199.5 89t-76.5 229q0 199 130.5 351t280.5 152q102 0 168.5 -59t70.5 -142l50 168h147l-133 -438q-15 -51 -22 -82t-7 -55q0 -45 27.5 -65.5 t62.5 -20.5q114 0 204.5 119t90.5 311q0 232 -162 364.5t-436 132.5q-380 0 -581 -222q-172 -189 -172 -475q0 -250 164 -420q192 -201 547 -201q166 0 309 52.5t262 141.5l66 -90q-90 -80 -269 -150t-394 -70q-418 0 -644 261z"></glyph><glyph glyph-name="A" unicode="A" d="M910 602l-223 649l-237 -649h460zM583 1469h225l533 -1469h-218l-149 440h-581l-159 -440h-204zM686 1469z"></glyph><glyph glyph-name="B" unicode="B" d="M708 848q126 0 196 35q110 55 110 198q0 144 -117 194q-66 28 -196 28h-355v-455h362zM775 170q183 0 261 106q49 67 49 162q0 160 -143 218q-76 31 -201 31h-395v-517h429zM151 1469h631q258 0 367 -154q64 -91 64 -210q0 -139 -79 -228q-41 -47 -118 -86 q113 -43 169 -97q99 -96 99 -265q0 -142 -89 -257q-133 -172 -423 -172h-621v1469z"></glyph><glyph glyph-name="C" unicode="C" d="M1208 1362q154 -147 171 -334h-194q-33 142 -131.5 225t-276.5 83q-217 0 -350.5 -152.5t-133.5 -467.5q0 -258 120.5 -418.5t359.5 -160.5q220 0 335 169q61 89 91 234h194q-26 -232 -172 -389q-175 -189 -472 -189q-256 0 -430 155q-229 205 -229 633q0 325 172 533 q186 226 513 226q279 0 433 -147zM735 1509z"></glyph><glyph glyph-name="D" unicode="D" d="M720 170q101 0 166 21q116 39 190 150q59 89 85 228q15 83 15 154q0 273 -108.5 424t-349.5 151h-353v-1128h355zM165 1469h595q303 0 470 -215q149 -194 149 -497q0 -234 -88 -423q-155 -334 -533 -334h-593v1469z"></glyph><glyph glyph-name="E" unicode="E" d="M175 1469h1071v-180h-877v-446h811v-170h-811v-498h892v-175h-1086v1469zM718 1469z"></glyph><glyph glyph-name="F" unicode="F" d="M175 1469h1019v-180h-820v-446h721v-175h-721v-668h-199v1469z"></glyph><glyph glyph-name="G" unicode="G" d="M1149 1427q219 -115 268 -403h-197q-36 161 -149 234.5t-285 73.5q-204 0 -343.5 -153t-139.5 -456q0 -262 115 -426.5t375 -164.5q199 0 329.5 115.5t133.5 373.5h-460v165h645v-786h-128l-48 189q-101 -111 -179 -154q-131 -74 -333 -74q-261 0 -449 169 q-205 212 -205 582q0 369 200 587q190 208 492 208q207 0 358 -80zM758 1509z"></glyph><glyph glyph-name="H" unicode="H" d="M161 1469h201v-607h764v607h201v-1469h-201v687h-764v-687h-201v1469z"></glyph><glyph glyph-name="I" unicode="I" d="M201 1469h201v-1469h-201v1469z"></glyph><glyph glyph-name="J" unicode="J" d="M877 438q0 -186 -55 -289q-102 -188 -388 -188q-165 0 -282 89.5t-117 318.5v105h187v-105q0 -120 53.5 -180.5t166.5 -60.5q159 0 208 109q30 67 30 253v979h197v-1031z"></glyph><glyph glyph-name="K" unicode="K" d="M156 1469h194v-716l716 716h275l-611 -592l628 -877h-259l-514 737l-235 -225v-512h-194v1469z"></glyph><glyph glyph-name="L" unicode="L" d="M156 1469h199v-1294h744v-175h-943v1469z"></glyph><glyph glyph-name="M" unicode="M" d="M151 1469h285l422 -1242l419 1242h282v-1469h-189v867q0 45 2 149t2 223l-419 -1239h-197l-422 1239v-45q0 -54 2.5 -164.5t2.5 -162.5v-867h-190v1469z"></glyph><glyph glyph-name="N" unicode="N" d="M156 1469h235l742 -1190v1190h189v-1469h-223l-753 1189v-1189h-190v1469zM726 1469z"></glyph><glyph glyph-name="O" unicode="O" d="M1366 1259q146 -195 146 -499q0 -329 -167 -547q-196 -256 -559 -256q-339 0 -533 224q-173 216 -173 546q0 298 148 510q190 272 562 272q389 0 576 -250zM1190.5 323.5q117.5 188.5 117.5 433.5q0 259 -135.5 417t-370.5 158q-228 0 -372 -156.5t-144 -461.5 q0 -244 123.5 -411.5t400.5 -167.5q263 0 380.5 188.5zM796 1509z"></glyph><glyph glyph-name="P" unicode="P" d="M175 1469h661q196 0 316 -110.5t120 -310.5q0 -172 -107 -299.5t-329 -127.5h-462v-621h-199v1469zM951 1267q-66 31 -181 31h-396v-509h396q134 0 217.5 57t83.5 201q0 162 -120 220z"></glyph><glyph glyph-name="Q" unicode="Q" d="M1500 4l-100 -121l-227 173q-82 -45 -177.5 -72t-208.5 -27q-342 0 -536 224q-171 218 -171 546q0 298 148 510q190 272 562 272q389 0 576 -250q146 -195 146 -499q0 -142 -35 -273q-53 -200 -179 -326zM927 143.5q54 8.5 94 33.5l-161 126l100 123l192 -149 q91 104 123.5 233t32.5 247q0 259 -135.5 417t-370.5 158q-238 0 -377 -151.5t-139 -466.5q0 -265 133.5 -422t391.5 -157q62 0 116 8.5z"></glyph><glyph glyph-name="R" unicode="R" d="M839 796q140 0 221.5 56t81.5 202q0 157 -114 214q-61 30 -163 30h-486v-502h460zM180 1469h680q168 0 277 -49q207 -94 207 -347q0 -132 -54.5 -216t-152.5 -135q86 -35 129.5 -92t48.5 -185l7 -197q3 -84 14 -125q18 -70 64 -90v-33h-244q-10 19 -16 49t-10 116 l-12 245q-7 144 -107 193q-57 27 -179 27h-453v-630h-199v1469z"></glyph><glyph glyph-name="S" unicode="S" d="M286 474q7 -125 59 -203q99 -146 349 -146q112 0 204 32q178 62 178 222q0 120 -75 171q-76 50 -238 87l-199 45q-195 44 -276 97q-140 92 -140 275q0 198 137 325t388 127q231 0 392.5 -111.5t161.5 -356.5h-187q-15 118 -64 181q-91 115 -309 115q-176 0 -253 -74 t-77 -172q0 -108 90 -158q59 -32 267 -80l206 -47q149 -34 230 -93q140 -103 140 -299q0 -244 -177.5 -349t-412.5 -105q-274 0 -429 140q-155 139 -152 377h187zM688 1509z"></glyph><glyph glyph-name="T" unicode="T" d="M1225 1469v-175h-495v-1294h-202v1294h-495v175h1192z"></glyph><glyph glyph-name="U" unicode="U" d="M372 1469v-908q0 -160 60 -266q89 -160 300 -160q253 0 344 173q49 94 49 253v908h202v-825q0 -271 -73 -417q-134 -266 -506 -266t-505 266q-73 146 -73 417v825h202zM749 1469z"></glyph><glyph glyph-name="V" unicode="V" d="M272 1469l422 -1251l417 1251h223l-536 -1469h-211l-535 1469h220z"></glyph><glyph glyph-name="W" unicode="W" d="M253 1469l277 -1195l332 1195h216l332 -1195l277 1195h218l-386 -1469h-209l-339 1218l-341 -1218h-209l-384 1469h216z"></glyph><glyph glyph-name="X" unicode="X" d="M282 0h-240l526 753l-493 716h249l375 -562l372 562h237l-493 -716l517 -753h-247l-396 604z"></glyph><glyph glyph-name="Y" unicode="Y" d="M42 1469h232l422 -706l422 706h233l-555 -877v-592h-199v592zM699 1469z"></glyph><glyph glyph-name="Z" unicode="Z" d="M47 165l901 1129h-835v175h1091v-171l-906 -1123h906v-175h-1157v165zM659 1469z"></glyph><glyph glyph-name="bracketleft" unicode="[" d="M128 1479h384v-147h-214v-1588h214v-147h-384v1882z"></glyph><glyph glyph-name="backslash" unicode="\" d="M87 1469l571 -1469h-156l-571 1469h156z"></glyph><glyph glyph-name="bracketright" unicode="]" d="M47 -256h213v1588h-213v147h384v-1882h-384v147z"></glyph><glyph glyph-name="asciicircum" unicode="^" d="M625 1469l353 -863h-163l-266 662l-265 -662h-164l351 863h154z"></glyph><glyph glyph-name="underscore" unicode="_" d="M0 -256v101h1139v-101h-1139z"></glyph><glyph glyph-name="grave" unicode="`" d="M443 1213h-137l-268 289h223z"></glyph><glyph glyph-name="a" unicode="a" d="M327 162q57 -45 135 -45q95 0 184 44q150 73 150 239v145q-33 -21 -85 -35t-102 -20l-109 -14q-98 -13 -147 -41q-83 -47 -83 -150q0 -78 57 -123zM706 649q62 8 83 52q12 24 12 69q0 92 -65.5 133.5t-187.5 41.5q-141 0 -200 -76q-33 -42 -43 -125h-168 q5 198 128.5 275.5t286.5 77.5q189 0 307 -72q117 -72 117 -224v-617q0 -28 11.5 -45t48.5 -17q12 0 27 1.5t32 4.5v-133q-42 -12 -64 -15t-60 -3q-93 0 -135 66q-22 35 -31 99q-55 -72 -158 -125t-227 -53q-149 0 -243.5 90.5t-94.5 226.5q0 149 93 231t244 101zM557 1097z "></glyph><glyph glyph-name="b" unicode="b" d="M118 1474h175v-533q59 77 141 117.5t178 40.5q200 0 324.5 -137.5t124.5 -405.5q0 -254 -123 -422t-341 -168q-122 0 -206 59q-50 35 -107 112v-137h-166v1474zM804.5 241q72.5 116 72.5 306q0 169 -72.5 280t-213.5 111q-123 0 -215.5 -91t-92.5 -300q0 -151 38 -245 q71 -177 265 -177q146 0 218.5 116z"></glyph><glyph glyph-name="c" unicode="c" d="M839.5 1014q113.5 -88 136.5 -303h-175q-16 99 -73 164.5t-183 65.5q-172 0 -246 -168q-48 -109 -48 -269q0 -161 68 -271t214 -110q112 0 177.5 68.5t90.5 187.5h175q-30 -213 -150 -311.5t-307 -98.5q-210 0 -335 153.5t-125 383.5q0 282 137 439t349 157 q181 0 294.5 -88zM517 1097z"></glyph><glyph glyph-name="d" unicode="d" d="M319 235q73 -116 234 -116q125 0 205.5 107.5t80.5 308.5q0 203 -83 300.5t-205 97.5q-136 0 -220.5 -104t-84.5 -306q0 -172 73 -288zM723 1038q48 -30 109 -105v541h173v-1474h-162v149q-63 -99 -149 -143t-197 -44q-179 0 -310 150.5t-131 400.5q0 234 119.5 405.5 t341.5 171.5q123 0 206 -52z"></glyph><glyph glyph-name="e" unicode="e" d="M799 1041.5q107 -53.5 163 -138.5q54 -81 72 -189q16 -74 16 -236h-785q5 -163 77 -261.5t223 -98.5q141 0 225 93q48 54 68 125h177q-7 -59 -46.5 -131.5t-88.5 -118.5q-82 -80 -203 -108q-65 -16 -147 -16q-200 0 -339 145.5t-139 407.5q0 258 140 419t366 161 q114 0 221 -53.5zM865 621q-11 117 -51 187q-74 130 -247 130q-124 0 -208 -89.5t-89 -227.5h595zM561 1097z"></glyph><glyph glyph-name="f" unicode="f" d="M216 1398q63 92 243 92q17 0 35 -1t41 -3v-164q-28 2 -40.5 2.5t-23.5 0.5q-82 0 -98 -42.5t-16 -216.5h178v-142h-180v-924h-178v924h-149v142h149v168q4 112 39 164z"></glyph><glyph glyph-name="g" unicode="g" d="M730 1028q51 -35 104 -102v135h166v-974q0 -204 -60 -322q-112 -218 -423 -218q-173 0 -291 77.5t-132 242.5h183q13 -72 52 -111q61 -60 192 -60q207 0 271 146q38 86 35 307q-54 -82 -130 -122t-201 -40q-174 0 -304.5 123.5t-130.5 408.5q0 269 131.5 420t317.5 151 q126 0 220 -62zM752 835q-82 96 -209 96q-190 0 -260 -178q-37 -95 -37 -249q0 -181 73.5 -275.5t197.5 -94.5q194 0 273 175q44 99 44 231q0 199 -82 295zM531 1097z"></glyph><glyph glyph-name="h" unicode="h" d="M132 1474h180v-548q64 81 115 114q87 57 217 57q233 0 316 -163q45 -89 45 -247v-687h-185v675q0 118 -30 173q-49 88 -184 88q-112 0 -203 -77t-91 -291v-568h-180v1474z"></glyph><glyph glyph-name="i" unicode="i" d="M132 1066h183v-1066h-183v1066zM132 1469h183v-204h-183v204z"></glyph><glyph glyph-name="j" unicode="j" d="M312 1261h-180v208h180v-208zM-38 -271q121 4 145.5 21.5t24.5 109.5v1206h180v-1225q0 -117 -38 -175q-63 -98 -239 -98q-13 0 -27.5 1t-45.5 4v156z"></glyph><glyph glyph-name="k" unicode="k" d="M128 1469h173v-853l462 455h230l-410 -401l433 -670h-230l-334 540l-151 -138v-402h-173v1469z"></glyph><glyph glyph-name="l" unicode="l" d="M137 1469h180v-1469h-180v1469z"></glyph><glyph glyph-name="m" unicode="m" d="M132 1071h178v-152q64 79 116 115q89 61 202 61q128 0 206 -63q44 -36 80 -106q60 86 141 127.5t182 41.5q216 0 294 -156q42 -84 42 -226v-713h-187v744q0 107 -53.5 147t-130.5 40q-106 0 -182.5 -71t-76.5 -237v-623h-183v699q0 109 -26 159q-41 75 -153 75 q-102 0 -185.5 -79t-83.5 -286v-568h-180v1071z"></glyph><glyph glyph-name="n" unicode="n" d="M132 1071h171v-152q76 94 161 135t189 41q228 0 308 -159q44 -87 44 -249v-687h-183v675q0 98 -29 158q-48 100 -174 100q-64 0 -105 -13q-74 -22 -130 -88q-45 -53 -58.5 -109.5t-13.5 -161.5v-561h-180v1071zM555 1097z"></glyph><glyph glyph-name="o" unicode="o" d="M802.5 251.5q66.5 135.5 66.5 301.5q0 150 -48 244q-76 148 -262 148q-165 0 -240 -126t-75 -304q0 -171 75 -285t238 -114q179 0 245.5 135.5zM914 964q143 -138 143 -406q0 -259 -126 -428t-391 -169q-221 0 -351 149.5t-130 401.5q0 270 137 430t368 160 q207 0 350 -138zM558 1097z"></glyph><glyph glyph-name="p" unicode="p" d="M793.5 226.5q83.5 105.5 83.5 315.5q0 128 -37 220q-70 177 -256 177q-187 0 -256 -187q-37 -100 -37 -254q0 -124 37 -211q70 -166 256 -166q126 0 209.5 105.5zM118 1066h175v-142q54 73 118 113q91 60 214 60q182 0 309 -139.5t127 -398.5q0 -350 -183 -500 q-116 -95 -270 -95q-121 0 -203 53q-48 30 -107 103v-547h-180v1493z"></glyph><glyph glyph-name="q" unicode="q" d="M287 288q69 -167 247 -167q188 0 259 176q39 97 39 248q0 139 -43 232q-73 159 -257 159q-117 0 -200.5 -101.5t-83.5 -313.5q0 -139 39 -233zM738 1028q50 -36 96 -106v149h171v-1498h-181v550q-45 -72 -124.5 -114.5t-198.5 -42.5q-171 0 -306 134t-135 408 q0 257 126.5 422t327.5 165q133 0 224 -67z"></glyph><glyph glyph-name="r" unicode="r" d="M137 1071h171v-185q21 54 103 131.5t189 77.5q5 0 17 -1t41 -4v-190q-16 3 -29.5 4t-29.5 1q-136 0 -209 -87.5t-73 -201.5v-616h-180v1071z"></glyph><glyph glyph-name="s" unicode="s" d="M239 336q8 -90 45 -138q68 -87 236 -87q100 0 176 43.5t76 134.5q0 69 -61 105q-39 22 -154 51l-143 36q-137 34 -202 76q-116 73 -116 202q0 152 109.5 246t294.5 94q242 0 349 -142q67 -90 65 -194h-170q-5 61 -43 111q-62 71 -215 71q-102 0 -154.5 -39t-52.5 -103 q0 -70 69 -112q40 -25 118 -44l119 -29q194 -47 260 -91q105 -69 105 -217q0 -143 -108.5 -247t-330.5 -104q-239 0 -338.5 108.5t-106.5 268.5h173zM505 1097z"></glyph><glyph glyph-name="t" unicode="t" d="M168 1370h182v-299h171v-147h-171v-699q0 -56 38 -75q21 -11 70 -11q13 0 28 0.5t35 2.5v-142q-31 -9 -64.5 -13t-72.5 -4q-126 0 -171 64.5t-45 167.5v709h-145v147h145v299z"></glyph><glyph glyph-name="u" unicode="u" d="M312 1071v-711q0 -82 26 -134q48 -96 179 -96q188 0 256 168q37 90 37 247v526h180v-1071h-170l2 158q-35 -61 -87 -103q-103 -84 -250 -84q-229 0 -312 153q-45 82 -45 219v728h184zM559 1097z"></glyph><glyph glyph-name="v" unicode="v" d="M220 1071l286 -872l299 872h197l-404 -1071h-192l-395 1071h209z"></glyph><glyph glyph-name="w" unicode="w" d="M215 1071l206 -844l209 844h202l210 -839l219 839h180l-311 -1071h-187l-218 829l-211 -829h-187l-309 1071h197z"></glyph><glyph glyph-name="x" unicode="x" d="M30 1071h233l246 -377l249 377l219 -5l-361 -517l377 -549h-230l-266 402l-258 -402h-228l377 549z"></glyph><glyph glyph-name="y" unicode="y" d="M801 1071h199q-38 -103 -169 -470q-98 -276 -164 -450q-156 -410 -220 -500t-220 -90q-38 0 -58.5 3t-50.5 11v164q47 -13 68 -16t37 -3q50 0 73.5 16.5t39.5 40.5q5 8 36 82t45 110l-396 1102h204l287 -872zM511 1097z"></glyph><glyph glyph-name="z" unicode="z" d="M52 142l635 768h-588v161h830v-147l-631 -763h650v-161h-896v142zM515 1097z"></glyph><glyph glyph-name="braceleft" unicode="{" d="M391 -5q0 -154 78 -219.5t171 -76.5v-117q-178 18 -294.5 104.5t-116.5 284.5v206q0 109 -34 172q-62 115 -238 134v114q177 21 238 131q34 61 34 175v163q0 188 81.5 298t329.5 131v-114q-161 -14 -218 -142q-31 -70 -31 -194v-112q0 -150 -37 -230q-67 -145 -260 -163 q192 -17 260 -168q37 -83 37 -226v-151z"></glyph><glyph glyph-name="bar" unicode="|" d="M315 0h-171v1490h171v-1490z"></glyph><glyph glyph-name="braceright" unicode="}" d="M328 702q-37 80 -37 231v112q0 132 -31 200q-56 122 -218 136v114q258 -21 350 -160q60 -89 60 -269v-163q0 -112 34 -174q62 -113 239 -132v-114q-176 -18 -239 -135q-34 -64 -34 -171v-206q0 -202 -116.5 -286t-293.5 -103v117q107 14 178 85.5t71 210.5v151 q0 144 37 226q68 151 259 168q-192 18 -259 162z"></glyph><glyph glyph-name="asciitilde" unicode="~" d="M390 687q57 -8 110 -29l222 -87q51 -20 84 -30q53 -15 93 -15q73 0 124 57.5t69 141.5h116q-25 -142 -98.5 -259t-222.5 -117q-45 0 -107 18q-36 11 -107 38l-204 78q-38 15 -78.5 23t-66.5 8q-84 0 -132 -65q-28 -38 -57 -129h-117q17 83 37 141.5t70 132.5 q42 50 90.5 74t113.5 24q29 0 61 -5z"></glyph><glyph glyph-name="nonbreakingspace" unicode=" "></glyph><glyph glyph-name="exclamdown" unicode="¡" d="M232 1071h204v-209h-204v209zM232 85l52 635h101l51 -635v-484h-204v484z"></glyph><glyph glyph-name="cent" unicode="¢" d="M339 269q32 -66 94 -111l221 775q-12 4 -28 7t-41 3q-126 0 -212.5 -115t-86.5 -305q0 -156 53 -254zM650 1099.5q23 -2.5 46 -7.5l53 183h83l-55 -202q119 -49 186 -141.5t79 -225.5h-168q-10 59 -40 117q-35 62 -102 87l-223 -785q19 -6 35 -9t46 -3q136 0 211 94 q44 55 76 167h173q-31 -149 -104 -247q-129 -170 -372 -170q-37 0 -60 3.5t-50 10.5l-62 -208h-85l69 232q-154 71 -218 211.5t-64 314.5q0 256 132.5 418.5t369.5 162.5q21 0 44 -2.5z"></glyph><glyph glyph-name="sterling" unicode="£" d="M66 118q113 79 182 174.5t69 207.5q0 32 -13 75q-8 27 -27 74h-221v104h157q0 -5 -33.5 62.5t-44.5 98.5q-10 29 -17 67.5t-7 82.5q0 156 127 279.5t364 123.5q223 0 337.5 -122t117.5 -345h-185q0 151 -70.5 229.5t-214.5 78.5q-140 0 -212 -73.5t-72 -178.5 q0 -52 22.5 -107t95.5 -196h328v-104h-283q10 -46 14.5 -72t4.5 -54q0 -100 -60 -197.5t-188 -193.5q69 35 136 55.5t131 20.5q72 0 190.5 -35.5t155.5 -35.5q47 0 86 18q24 11 73 46l83 -135q-56 -45 -100 -67q-73 -35 -155 -35q-60 0 -201.5 46t-223.5 46q-76 0 -144 -26 q-40 -16 -103 -54z"></glyph><glyph glyph-name="currency" unicode="¤" d="M352.5 498q85.5 -86 208.5 -86q119 0 205.5 83.5t86.5 208.5t-86.5 209t-205.5 84q-122 0 -208 -85t-86 -208q0 -120 85.5 -206zM75 1095l95 94l138 -137q56 42 115.5 63.5t128.5 21.5q83 0 145 -22.5t116 -64.5l137 139l95 -94l-140 -140q46 -58 68.5 -121t22.5 -137 q0 -58 -19.5 -121.5t-71.5 -123.5l140 -137l-95 -95l-137 135q-57 -43 -119 -64.5t-130 -21.5q-62 0 -123.5 18t-132.5 70l-138 -139l-95 97l140 137q-42 54 -63.5 116t-21.5 130q0 85 24 147t61 115z"></glyph><glyph glyph-name="yen" unicode="¥" d="M192 1405l365 -675l367 675h223l-265 -445h175v-136h-253l-129 -218h349v-135h-373v-471h-189v471h-363v135h339l-128 218h-258v136h180l-263 445h223z"></glyph><glyph glyph-name="brokenbar" unicode="¦" d="M144 912v578h171v-578h-171zM315 0h-171v578h171v-578z"></glyph><glyph glyph-name="section" unicode="§" d="M293.5 1370.5q99.5 99.5 262.5 99.5q240 0 331 -159q48 -83 51 -216h-175q-7 95 -33 140q-47 82 -165 82q-94 0 -143.5 -44.5t-49.5 -118.5q0 -43 18.5 -77.5t55.5 -60.5q74 -51 263 -157q336 -188 336 -398q0 -119 -72 -208q-41 -51 -139 -121q53 -49 82 -107t29 -125 q0 -135 -105 -233.5t-283 -98.5q-235 0 -329 152q-52 82 -63 232h178q8 -98 35 -144q48 -83 167 -83q78 0 125 21q88 39 88 147q0 46 -27 86q-16 22 -45 46q-16 13 -104 73q-52 35 -99 67l-178 119q-106 71 -151 123q-79 89 -79 200q0 96 59 173.5t155 136.5q-44 40 -68 86 q-27 58 -27 123q0 145 99.5 244.5zM732 215q59 34 87 68q50 59 50 146q0 78 -53 133q-33 34 -134 96l-291 178q-59 -32 -87 -62q-53 -56 -53 -136q0 -43 13 -76q25 -61 93 -105z"></glyph><glyph glyph-name="dieresis" unicode="¨" d="M412 1445h187v-208h-187v208zM82 1445h187v-208h-187v208z"></glyph><glyph glyph-name="copyright" unicode="©" d="M997 384.5q-94 -74.5 -225 -74.5q-165 0 -282 118t-117 314q0 183 105.5 306t275.5 123q107 0 193 -43q149 -77 162 -256h-121q-9 75 -63 130t-157 55q-145 0 -210 -130q-42 -83 -42 -179q0 -137 67.5 -230.5t195.5 -93.5q82 0 137 43.5t77 126.5h121 q-23 -135 -117 -209.5zM308 1184q-183 -185 -183 -447q0 -264 182 -450q184 -186 446 -186t446 186q182 186 182 450q0 262 -183 447q-183 186 -445 186q-261 0 -445 -186zM1273 216q-215 -216 -520 -216t-520 216t-215 521q0 304 215 518t520 214t520 -214t215 -518 q0 -305 -215 -521z"></glyph><glyph glyph-name="ordfeminine" unicode="ª" d="M495 1168q-46 -21 -159 -36q-126 -26 -126 -109q0 -41 25.5 -64.5t76.5 -23.5q82 0 132.5 37t50.5 120v76zM438 1242q25 4 42 14.5t17 43.5q0 53 -31 78t-104 25q-72 0 -103.5 -28.5t-36.5 -76.5h-128q8 101 71 156t219 55q155 0 216 -72q40 -48 40 -134v-315 q0 -21 7.5 -33t36.5 -12q6 0 34 2v-106q-22 -6 -42 -9t-42 -3q-52 0 -77.5 28.5t-30.5 73.5q-50 -59 -119 -80.5t-127 -21.5q-111 0 -166 59t-55 135q0 106 89 158q49 30 131 41z"></glyph><glyph glyph-name="guillemotleft" unicode="«" d="M613 654l323 251v-180l-216 -166l216 -166v-180l-323 251v190zM194 654l322 251v-180l-215 -166l215 -166v-180l-322 251v190z"></glyph><glyph glyph-name="logicalnot" unicode="¬" d="M1135 822v-600h-168v432h-875v168h1043z"></glyph><glyph glyph-name="softhyphen" unicode="­" d="M85 663h502v-185h-502v185z"></glyph><glyph glyph-name="registered" unicode="®" d="M307 1184q-184 -185 -184 -447q0 -264 183 -450q184 -186 447 -186t447 186t184 450q0 262 -184 447q-185 186 -447 186q-261 0 -446 -186zM1273 216q-215 -216 -520 -216t-519 216q-213 215 -213 521q0 303 215 518q214 214 517 214q305 0 520 -214t215 -518 q0 -305 -215 -521zM891.5 1015q-53.5 30 -171.5 30h-121v-292h128q90 0 135 18q83 33 83 126q0 88 -53.5 118zM739 1142q150 0 220 -29q125 -52 125 -204q0 -108 -79 -159q-42 -27 -117 -39q95 -15 139 -79t44 -125v-59q0 -28 2 -60t7 -42l5 -10h-133l-2 8t-2 9l-3 26v64 q0 140 -76 185q-45 26 -158 26h-112v-318h-142v806h282z"></glyph><glyph glyph-name="macron" unicode="¯" d="M21 1400h640v-118h-640v118z"></glyph><glyph glyph-name="degree" unicode="°" d="M628 1343.5q87 -87.5 87 -213.5q0 -130 -90.5 -216.5t-210.5 -86.5q-133 0 -218 90t-85 210q0 128 89.5 216t213.5 88q127 0 214 -87.5zM277 993q57 -57 137 -57q77 0 134.5 56.5t57.5 137.5q0 78 -56.5 135t-135.5 57t-136.5 -56.5t-57.5 -137.5q0 -78 57 -135z"></glyph><glyph glyph-name="plusminus" unicode="±" d="M1135 161v-161h-1043v161h1043zM92 557v158h436v330h171v-330h436v-158h-436v-318h-171v318h-436z"></glyph><glyph glyph-name="twosuperior" unicode="²" d="M81 805q70 89 174 141q149 74 193.5 110t44.5 96q0 66 -37 106t-118 40t-113 -51t-33 -124h-157q0 150 85.5 229.5t222.5 79.5q139 0 223.5 -67t84.5 -196q0 -119 -61.5 -180t-194.5 -125q-171 -77 -201 -153h457v-140h-640q0 145 70 234z"></glyph><glyph glyph-name="threesuperior" unicode="³" d="M154 832q7 -82 29 -114q37 -55 138 -55q97 0 138.5 42t41.5 103q0 96 -102 128q-55 17 -141 14v121q96 -1 137 13q74 25 74 105q0 48 -33.5 83.5t-105.5 35.5q-69 0 -112.5 -37.5t-44.5 -126.5h-145q0 136 82 211.5t219 75.5q132 0 212 -67t80 -165q0 -69 -31.5 -114 t-89.5 -61q84 -21 119 -75.5t35 -141.5q0 -127 -98.5 -196t-233.5 -69q-129 0 -220 65t-95 225h147z"></glyph><glyph glyph-name="acute" unicode="´" d="M543 1502l-267 -289h-138l183 289h222z"></glyph><glyph glyph-name="mu" unicode="µ" d="M433 1069l-163 -757q-4 -17 -5.5 -29.5t-1.5 -27.5q0 -48 19 -76q35 -51 132 -51q145 0 245.5 106.5t131.5 248.5l128 586h183l-230 -1069h-173l42 180q-22 -44 -94 -105q-123 -103 -273 -103q-47 0 -96 17t-72 39l-97 -450h-185l324 1491h185z"></glyph><glyph glyph-name="paragraph" unicode="¶" d="M940 -363h-147v1716h-231v-1716h-147v889q-213 3 -319.5 148.5t-106.5 320.5q0 148 72 264q130 210 428 210h576v-116h-125v-1716z"></glyph><glyph glyph-name="periodcentered" unicode="·" d="M370 791.5q37 -37.5 37 -90.5t-37.5 -90.5t-90.5 -37.5t-90.5 37.5t-37.5 90.5t37 90.5t91 37.5t91 -37.5z"></glyph><glyph glyph-name="cedilla" unicode="¸" d="M322 0h97l-94 -128q29 9 75 9q70 0 115.5 -40.5t45.5 -115.5q0 -76 -60 -131t-184 -55q-53 0 -110 15q-32 8 -86 28l35 81q38 -14 59 -20q41 -11 74 -11q37 0 64 11q52 21 52 76q0 32 -26.5 55.5t-70.5 23.5q-22 0 -39.5 -4t-41.5 -13l-35 41z"></glyph><glyph glyph-name="onesuperior" unicode="¹" d="M469 571h-161v583h-221v107q126 11 166 32q62 32 85 133h131v-855z"></glyph><glyph glyph-name="ordmasculine" unicode="º" d="M613 1424q88 -85 88 -253q0 -149 -83.5 -246.5t-245.5 -97.5q-185 0 -268 134q-55 88 -55 202q0 113 56 205q87 141 277 141q143 0 231 -85zM243.5 1332.5q-49.5 -60.5 -49.5 -174.5q0 -89 41.5 -152t131.5 -63q112 0 159 95q28 57 28 134q0 110 -50.5 165.5t-122.5 55.5 q-88 0 -137.5 -60.5z"></glyph><glyph glyph-name="guillemotright" unicode="»" d="M613 393l211 166l-211 166v180l323 -251v-190l-323 -251v180zM194 393l211 166l-211 166v180l322 -251v-190l-322 -251v180z"></glyph><glyph glyph-name="onequarter" unicode="¼" d="M545 571h-161v583h-221v107q125 11 166 32q62 32 85 133h131v-855zM1377 860h135v-543h114v-123h-114v-194h-154v194h-408v135zM1355 317v344l-270 -344h270zM1261 1431h135l-877 -1469h-135z"></glyph><glyph glyph-name="onehalf" unicode="½" d="M272 -38l849 1469h135l-849 -1469h-135zM471 571h-161v583h-220v107q124 11 165 32q64 33 86 133h130v-855zM1011.5 221q50.5 87 182.5 153q149 74 193.5 111t44.5 96q0 70 -38.5 108t-116.5 38q-90 0 -124 -65q-19 -37 -23 -110h-156q0 125 74 216.5t240 91.5 q138 0 220 -69.5t82 -186.5q0 -103 -49.5 -168t-183.5 -132q-193 -89 -224 -165h457v-139h-640q11 134 61.5 221z"></glyph><glyph glyph-name="threequarters" unicode="¾" d="M1396 860h135v-543h114v-123h-114v-194h-154v194h-408v135zM1374 317v344l-270 -344h270zM1453 1431l-896 -1469h-136l896 1469h136zM222 832q0 -72 34 -118q37 -51 133 -51t138 41t42 101q0 98 -101 131q-55 17 -141 14v121q97 -1 138 13q73 26 73 107q0 43 -32 80 t-108 37q-69 0 -111.5 -37t-45.5 -127h-144q0 144 85.5 215.5t215.5 71.5q131 0 211 -67t80 -165q0 -60 -30.5 -108.5t-90.5 -66.5q100 -32 135 -105q19 -41 19 -105q0 -133 -97.5 -202.5t-233.5 -69.5q-192 0 -269 119q-47 77 -47 171h147z"></glyph><glyph glyph-name="questiondown" unicode="¿" d="M545 1076h199v-209h-199v209zM426 374q91 91 113 152t22 175h178q0 -152 -30 -224t-167 -217l-78 -83q-52 -54 -70 -101t-18 -90q0 -102 64.5 -172t201.5 -70q151 0 215 111q36 64 46 211h173q4 -247 -127.5 -363t-316.5 -116t-315.5 103t-130.5 285q0 101 47 177 t146 175z"></glyph><glyph glyph-name="Agrave" unicode="À" d="M910 602l-223 649l-237 -649h460zM583 1469h225l533 -1469h-218l-149 440h-581l-159 -440h-204zM686 1469zM806 1585h-137l-268 289h223z"></glyph><glyph glyph-name="Aacute" unicode="Á" d="M910 602l-223 649l-237 -649h460zM583 1469h225l533 -1469h-218l-149 440h-581l-159 -440h-204zM686 1469zM901 1874l-267 -289h-138l183 289h222z"></glyph><glyph glyph-name="Acircumflex" unicode="Â" d="M910 602l-223 649l-237 -649h460zM583 1469h225l533 -1469h-218l-149 440h-581l-159 -440h-204zM686 1469zM796 1874l204 -289h-164l-135 192l-135 -192h-163l203 289h190z"></glyph><glyph glyph-name="Atilde" unicode="Ã" d="M910 602l-223 649l-237 -649h460zM583 1469h225l533 -1469h-218l-149 440h-581l-159 -440h-204zM686 1469zM752 1775q28 -12 51 -19t47 -7q56 0 80 35q13 19 18 57h105q-21 -127 -80.5 -175t-130.5 -48q-22 0 -56 8t-60 18l-53 19q-47 17 -76.5 25.5t-57.5 8.5 q-35 0 -57.5 -23t-30.5 -70h-98q13 79 43 129q57 92 169 92q34 0 75.5 -10t111.5 -40z"></glyph><glyph glyph-name="Adieresis" unicode="Ä" d="M910 602l-223 649l-237 -649h460zM583 1469h225l533 -1469h-218l-149 440h-581l-159 -440h-204zM686 1469zM757 1817h187v-208h-187v208zM427 1817h187v-208h-187v208z"></glyph><glyph glyph-name="Aring" unicode="Å" d="M910 602l-223 649l-237 -649h460zM583 1469h225l533 -1469h-218l-149 440h-581l-159 -440h-204zM686 1469zM701 1611q52 0 89 37t37 89t-37 89t-89 37q-51 0 -88 -37t-37 -89t37 -89t88 -37zM701 1946q86 0 147.5 -61.5t61.5 -147.5t-61.5 -147.5t-147.5 -61.5t-147 61.5 t-61 147.5t61 147.5t147 61.5z"></glyph><glyph glyph-name="AE" unicode="Æ" d="M737 1298l-273 -694h472v694h-199zM613 1469h1316v-175h-796v-451h730v-166h-730v-502h815v-175h-1012v436h-541l-163 -436h-216z"></glyph><glyph glyph-name="Ccedilla" unicode="Ç" d="M1208 1362q154 -147 171 -334h-194q-33 142 -131.5 225t-276.5 83q-217 0 -350.5 -152.5t-133.5 -467.5q0 -258 120.5 -418.5t359.5 -160.5q220 0 335 169q61 89 91 234h194q-26 -232 -172 -389q-175 -189 -451 -189l-66 -90q29 9 75 9q70 0 115.5 -40.5t45.5 -115.5 q0 -76 -60 -131t-184 -55q-53 0 -110 15q-32 8 -86 28l35 81q38 -14 59 -20q41 -11 74 -11q37 0 64 11q52 21 52 76q0 32 -26.5 55.5t-70.5 23.5q-22 0 -39.5 -4t-41.5 -13l-35 41l102 140q-175 0 -350 139q-233 221 -233 649q0 325 172 533q186 226 513 226q279 0 433 -147 z"></glyph><glyph glyph-name="Egrave" unicode="È" d="M175 1469h1071v-180h-877v-446h811v-170h-811v-498h892v-175h-1086v1469zM718 1469zM838 1585h-137l-268 289h223z"></glyph><glyph glyph-name="Eacute" unicode="É" d="M175 1469h1071v-180h-877v-446h811v-170h-811v-498h892v-175h-1086v1469zM718 1469zM943 1874l-267 -289h-138l183 289h222z"></glyph><glyph glyph-name="Ecircumflex" unicode="Ê" d="M175 1469h1071v-180h-877v-446h811v-170h-811v-498h892v-175h-1086v1469zM718 1469zM828 1874l204 -289h-164l-135 192l-135 -192h-163l203 289h190z"></glyph><glyph glyph-name="Edieresis" unicode="Ë" d="M175 1469h1071v-180h-877v-446h811v-170h-811v-498h892v-175h-1086v1469zM718 1469zM802 1817h187v-208h-187v208zM472 1817h187v-208h-187v208z"></glyph><glyph glyph-name="Igrave" unicode="Ì" d="M184 1469h201v-1469h-201v1469zM407 1584h-137l-268 289h223z"></glyph><glyph glyph-name="Iacute" unicode="Í" d="M201 1469h201v-1469h-201v1469zM512 1870l-267 -289h-138l183 289h222z"></glyph><glyph glyph-name="Icircumflex" unicode="Î" d="M201 1469h201v-1469h-201v1469zM386 1878l204 -289h-164l-135 192l-135 -192h-163l203 289h190z"></glyph><glyph glyph-name="Idieresis" unicode="Ï" d="M201 1469h201v-1469h-201v1469zM362 1813h187v-208h-187v208zM32 1813h187v-208h-187v208z"></glyph><glyph glyph-name="Eth" unicode="Ð" d="M33 865h132v604h562q365 0 531 -251q121 -183 121 -459q0 -244 -93 -436q-156 -323 -528 -323h-593v687h-132v178zM365 865h419v-178h-419v-517h355q101 0 166 21q116 39 190 150q59 89 85 228q15 83 15 154q0 273 -108.5 424t-349.5 151h-353v-433z"></glyph><glyph glyph-name="Ntilde" unicode="Ñ" d="M156 1469h235l742 -1190v1190h189v-1469h-223l-753 1189v-1189h-190v1469zM726 1469zM802 1775q28 -12 51 -19t47 -7q56 0 80 35q13 19 18 57h105q-21 -127 -80.5 -175t-130.5 -48q-22 0 -56 8t-60 18l-53 19q-47 17 -76.5 25.5t-57.5 8.5q-35 0 -57.5 -23t-30.5 -70h-98 q13 79 43 129q57 92 169 92q34 0 75.5 -10t111.5 -40z"></glyph><glyph glyph-name="Ograve" unicode="Ò" d="M1366 1259q146 -195 146 -499q0 -329 -167 -547q-196 -256 -559 -256q-339 0 -533 224q-173 216 -173 546q0 298 148 510q190 272 562 272q389 0 576 -250zM1190.5 323.5q117.5 188.5 117.5 433.5q0 259 -135.5 417t-370.5 158q-228 0 -372 -156.5t-144 -461.5 q0 -244 123.5 -411.5t400.5 -167.5q263 0 380.5 188.5zM796 1509zM926 1625h-137l-268 289h223z"></glyph><glyph glyph-name="Oacute" unicode="Ó" d="M1366 1259q146 -195 146 -499q0 -329 -167 -547q-196 -256 -559 -256q-339 0 -533 224q-173 216 -173 546q0 298 148 510q190 272 562 272q389 0 576 -250zM1190.5 323.5q117.5 188.5 117.5 433.5q0 259 -135.5 417t-370.5 158q-228 0 -372 -156.5t-144 -461.5 q0 -244 123.5 -411.5t400.5 -167.5q263 0 380.5 188.5zM796 1509zM1011 1914l-267 -289h-138l183 289h222z"></glyph><glyph glyph-name="Ocircumflex" unicode="Ô" d="M1366 1259q146 -195 146 -499q0 -329 -167 -547q-196 -256 -559 -256q-339 0 -533 224q-173 216 -173 546q0 298 148 510q190 272 562 272q389 0 576 -250zM1190.5 323.5q117.5 188.5 117.5 433.5q0 259 -135.5 417t-370.5 158q-228 0 -372 -156.5t-144 -461.5 q0 -244 123.5 -411.5t400.5 -167.5q263 0 380.5 188.5zM796 1509zM906 1914l204 -289h-164l-135 192l-135 -192h-163l203 289h190z"></glyph><glyph glyph-name="Otilde" unicode="Õ" d="M1366 1259q146 -195 146 -499q0 -329 -167 -547q-196 -256 -559 -256q-339 0 -533 224q-173 216 -173 546q0 298 148 510q190 272 562 272q389 0 576 -250zM1190.5 323.5q117.5 188.5 117.5 433.5q0 259 -135.5 417t-370.5 158q-228 0 -372 -156.5t-144 -461.5 q0 -244 123.5 -411.5t400.5 -167.5q263 0 380.5 188.5zM796 1509zM862 1815q28 -12 51 -19t47 -7q56 0 80 35q13 19 18 57h105q-21 -127 -80.5 -175t-130.5 -48q-22 0 -56 8t-60 18l-53 19q-47 17 -76.5 25.5t-57.5 8.5q-35 0 -57.5 -23t-30.5 -70h-98q13 79 43 129 q57 92 169 92q34 0 75.5 -10t111.5 -40z"></glyph><glyph glyph-name="Odieresis" unicode="Ö" d="M1366 1259q146 -195 146 -499q0 -329 -167 -547q-196 -256 -559 -256q-339 0 -533 224q-173 216 -173 546q0 298 148 510q190 272 562 272q389 0 576 -250zM1190.5 323.5q117.5 188.5 117.5 433.5q0 259 -135.5 417t-370.5 158q-228 0 -372 -156.5t-144 -461.5 q0 -244 123.5 -411.5t400.5 -167.5q263 0 380.5 188.5zM796 1509zM890 1857h187v-208h-187v208zM560 1857h187v-208h-187v208z"></glyph><glyph glyph-name="multiply" unicode="×" d="M116 903l118 118l379 -379l380 379l121 -118l-380 -380l380 -379l-121 -121l-380 379l-379 -379l-118 121l379 379z"></glyph><glyph glyph-name="Oslash" unicode="Ø" d="M587 172q82 -37 225 -37q268 0 399 224q97 166 97 398q0 130 -38 239q-21 59 -62 129l-770 -846q67 -70 149 -107zM132 -36l-66 62l175 180q-82 107 -121.5 240.5t-39.5 280.5q0 304 156 520q190 263 545 263q177 0 300.5 -44.5t205.5 -121.5l154 165l64 -61l-157 -173 q57 -70 104 -177q60 -147 60 -338q0 -364 -205 -586q-200 -217 -513 -217q-187 0 -324 63q-87 40 -169 117zM1030 1281q-103 51 -235 51q-225 0 -367 -157.5t-142 -460.5q0 -95 20 -191t73 -175l775 846q-67 59 -124 87z"></glyph><glyph glyph-name="Ugrave" unicode="Ù" d="M372 1469v-908q0 -160 60 -266q89 -160 300 -160q253 0 344 173q49 94 49 253v908h202v-825q0 -271 -73 -417q-134 -266 -506 -266t-505 266q-73 146 -73 417v825h202zM749 1469zM879 1585h-137l-268 289h223z"></glyph><glyph glyph-name="Uacute" unicode="Ú" d="M372 1469v-908q0 -160 60 -266q89 -160 300 -160q253 0 344 173q49 94 49 253v908h202v-825q0 -271 -73 -417q-134 -266 -506 -266t-505 266q-73 146 -73 417v825h202zM749 1469zM974 1874l-267 -289h-138l183 289h222z"></glyph><glyph glyph-name="Ucircumflex" unicode="Û" d="M372 1469v-908q0 -160 60 -266q89 -160 300 -160q253 0 344 173q49 94 49 253v908h202v-825q0 -271 -73 -417q-134 -266 -506 -266t-505 266q-73 146 -73 417v825h202zM749 1469zM859 1874l204 -289h-164l-135 192l-135 -192h-163l203 289h190z"></glyph><glyph glyph-name="Udieresis" unicode="Ü" d="M372 1469v-908q0 -160 60 -266q89 -160 300 -160q253 0 344 173q49 94 49 253v908h202v-825q0 -271 -73 -417q-134 -266 -506 -266t-505 266q-73 146 -73 417v825h202zM749 1469zM843 1817h187v-208h-187v208zM513 1817h187v-208h-187v208z"></glyph><glyph glyph-name="Yacute" unicode="Ý" d="M42 1469h232l422 -706l422 706h233l-555 -877v-592h-199v592zM699 1469zM914 1874l-267 -289h-138l183 289h222z"></glyph><glyph glyph-name="Thorn" unicode="Þ" d="M128 1467h194v-234h456q227 0 337.5 -116.5t110.5 -307.5q0 -168 -118.5 -294t-336.5 -126h-449v-389h-194v1467zM904 598q117 58 117 222q0 69 -33 129q-62 111 -212 111h-454v-496h390q128 1 192 34z"></glyph><glyph glyph-name="germandbls" unicode="ß" d="M199 1024q0 286 153 397q102 70 254 70q207 0 318 -100.5t111 -265.5q0 -116 -46 -192t-120 -113q91 -23 153 -99q84 -96 84 -270q0 -198 -112.5 -339t-318.5 -141q-48 0 -71.5 2t-58.5 8v156q24 -3 44 -5t45 -2q108 0 196.5 68t88.5 242q0 169 -114 241q-71 44 -166 44 q-17 0 -39.5 -2t-45.5 -5v161q18 -3 27.5 -4t20.5 -1q145 0 200.5 73.5t55.5 154.5q0 102 -60.5 167t-180.5 65q-155 0 -208 -112q-30 -63 -30 -198v-1024h-180v1024z"></glyph><glyph glyph-name="agrave" unicode="à" d="M327 162q57 -45 135 -45q95 0 184 44q150 73 150 239v145q-33 -21 -85 -35t-102 -20l-109 -14q-98 -13 -147 -41q-83 -47 -83 -150q0 -78 57 -123zM706 649q62 8 83 52q12 24 12 69q0 92 -65.5 133.5t-187.5 41.5q-141 0 -200 -76q-33 -42 -43 -125h-168 q5 198 128.5 275.5t286.5 77.5q189 0 307 -72q117 -72 117 -224v-617q0 -28 11.5 -45t48.5 -17q12 0 27 1.5t32 4.5v-133q-42 -12 -64 -15t-60 -3q-93 0 -135 66q-22 35 -31 99q-55 -72 -158 -125t-227 -53q-149 0 -243.5 90.5t-94.5 226.5q0 149 93 231t244 101zM557 1097z M687 1213h-137l-268 289h223z"></glyph><glyph glyph-name="aacute" unicode="á" d="M327 162q57 -45 135 -45q95 0 184 44q150 73 150 239v145q-33 -21 -85 -35t-102 -20l-109 -14q-98 -13 -147 -41q-83 -47 -83 -150q0 -78 57 -123zM706 649q62 8 83 52q12 24 12 69q0 92 -65.5 133.5t-187.5 41.5q-141 0 -200 -76q-33 -42 -43 -125h-168 q5 198 128.5 275.5t286.5 77.5q189 0 307 -72q117 -72 117 -224v-617q0 -28 11.5 -45t48.5 -17q12 0 27 1.5t32 4.5v-133q-42 -12 -64 -15t-60 -3q-93 0 -135 66q-22 35 -31 99q-55 -72 -158 -125t-227 -53q-149 0 -243.5 90.5t-94.5 226.5q0 149 93 231t244 101zM557 1097z M782 1502l-267 -289h-138l183 289h222z"></glyph><glyph glyph-name="acircumflex" unicode="â" d="M327 162q57 -45 135 -45q95 0 184 44q150 73 150 239v145q-33 -21 -85 -35t-102 -20l-109 -14q-98 -13 -147 -41q-83 -47 -83 -150q0 -78 57 -123zM706 649q62 8 83 52q12 24 12 69q0 92 -65.5 133.5t-187.5 41.5q-141 0 -200 -76q-33 -42 -43 -125h-168 q5 198 128.5 275.5t286.5 77.5q189 0 307 -72q117 -72 117 -224v-617q0 -28 11.5 -45t48.5 -17q12 0 27 1.5t32 4.5v-133q-42 -12 -64 -15t-60 -3q-93 0 -135 66q-22 35 -31 99q-55 -72 -158 -125t-227 -53q-149 0 -243.5 90.5t-94.5 226.5q0 149 93 231t244 101zM557 1097z M677 1502l204 -289h-164l-135 192l-135 -192h-163l203 289h190z"></glyph><glyph glyph-name="atilde" unicode="ã" d="M327 162q57 -45 135 -45q95 0 184 44q150 73 150 239v145q-33 -21 -85 -35t-102 -20l-109 -14q-98 -13 -147 -41q-83 -47 -83 -150q0 -78 57 -123zM706 649q62 8 83 52q12 24 12 69q0 92 -65.5 133.5t-187.5 41.5q-141 0 -200 -76q-33 -42 -43 -125h-168 q5 198 128.5 275.5t286.5 77.5q189 0 307 -72q117 -72 117 -224v-617q0 -28 11.5 -45t48.5 -17q12 0 27 1.5t32 4.5v-133q-42 -12 -64 -15t-60 -3q-93 0 -135 66q-22 35 -31 99q-55 -72 -158 -125t-227 -53q-149 0 -243.5 90.5t-94.5 226.5q0 149 93 231t244 101zM557 1097z M633 1403q28 -12 51 -19t47 -7q56 0 80 35q13 19 18 57h105q-21 -127 -80.5 -175t-130.5 -48q-22 0 -56 8t-60 18l-53 19q-47 17 -76.5 25.5t-57.5 8.5q-35 0 -57.5 -23t-30.5 -70h-98q13 79 43 129q57 92 169 92q34 0 75.5 -10t111.5 -40z"></glyph><glyph glyph-name="adieresis" unicode="ä" d="M327 162q57 -45 135 -45q95 0 184 44q150 73 150 239v145q-33 -21 -85 -35t-102 -20l-109 -14q-98 -13 -147 -41q-83 -47 -83 -150q0 -78 57 -123zM706 649q62 8 83 52q12 24 12 69q0 92 -65.5 133.5t-187.5 41.5q-141 0 -200 -76q-33 -42 -43 -125h-168 q5 198 128.5 275.5t286.5 77.5q189 0 307 -72q117 -72 117 -224v-617q0 -28 11.5 -45t48.5 -17q12 0 27 1.5t32 4.5v-133q-42 -12 -64 -15t-60 -3q-93 0 -135 66q-22 35 -31 99q-55 -72 -158 -125t-227 -53q-149 0 -243.5 90.5t-94.5 226.5q0 149 93 231t244 101zM557 1097z M651 1445h187v-208h-187v208zM321 1445h187v-208h-187v208z"></glyph><glyph glyph-name="aring" unicode="å" d="M327 162q57 -45 135 -45q95 0 184 44q150 73 150 239v145q-33 -21 -85 -35t-102 -20l-109 -14q-98 -13 -147 -41q-83 -47 -83 -150q0 -78 57 -123zM706 649q62 8 83 52q12 24 12 69q0 92 -65.5 133.5t-187.5 41.5q-141 0 -200 -76q-33 -42 -43 -125h-168 q5 198 128.5 275.5t286.5 77.5q189 0 307 -72q117 -72 117 -224v-617q0 -28 11.5 -45t48.5 -17q12 0 27 1.5t32 4.5v-133q-42 -12 -64 -15t-60 -3q-93 0 -135 66q-22 35 -31 99q-55 -72 -158 -125t-227 -53q-149 0 -243.5 90.5t-94.5 226.5q0 149 93 231t244 101zM557 1097z M581 1291q52 0 89 37t37 89t-37 89t-89 37q-51 0 -88 -37t-37 -89t37 -89t88 -37zM581 1626q86 0 147.5 -61.5t61.5 -147.5t-61.5 -147.5t-147.5 -61.5t-147 61.5t-61 147.5t61 147.5t147 61.5z"></glyph><glyph glyph-name="ae" unicode="æ" d="M1543 621q-3 157 -86.5 237.5t-203.5 80.5t-207 -80.5t-96 -237.5h593zM782 545q-25 -17 -49 -26.5t-85 -19.5l-153 -23q-111 -18 -159 -45q-79 -46 -79 -144q0 -84 63.5 -129t149.5 -45q49 0 114 25t120 77q49 46 64 94q9 30 14 101v135zM685 649q51 7 76 36t25 82 q0 86 -56 131t-179 45q-100 0 -160 -32q-100 -59 -100 -170h-173q10 226 177 309q96 47 264 47q133 0 228 -49q80 -43 122 -112q59 77 147.5 119t199.5 42q117 0 216 -41.5t165 -138.5q59 -80 78.5 -184.5t19.5 -254.5h-787q5 -166 82 -263t216 -97q130 0 198 57t94 161h182 q-9 -80 -67 -164.5t-122 -126.5q-70 -46 -142.5 -63.5t-149.5 -17.5q-147 0 -260 76q-104 77 -133 152q-82 -121 -186.5 -174.5t-226.5 -53.5q-172 0 -266 86t-94 222q0 178 121 266q77 56 206 73z"></glyph><glyph glyph-name="ccedilla" unicode="ç" d="M839.5 1014q113.5 -88 136.5 -303h-175q-16 99 -73 164.5t-183 65.5q-172 0 -246 -168q-48 -109 -48 -269q0 -161 68 -271t214 -110q112 0 177.5 68.5t90.5 187.5h175q-30 -213 -150 -311.5t-279 -98.5l-71 -97q29 9 75 9q70 0 115.5 -40.5t45.5 -115.5q0 -76 -60 -131 t-184 -55q-53 0 -110 15q-32 8 -86 28l35 81q38 -14 59 -20q41 -11 74 -11q37 0 64 11q52 21 52 76q0 32 -26.5 55.5t-70.5 23.5q-22 0 -39.5 -4t-41.5 -13l-35 41l108 147q-142 0 -248 114q-144 163 -144 423q0 282 137 439t349 157q181 0 294.5 -88z"></glyph><glyph glyph-name="egrave" unicode="è" d="M799 1041.5q107 -53.5 163 -138.5q54 -81 72 -189q16 -74 16 -236h-785q5 -163 77 -261.5t223 -98.5q141 0 225 93q48 54 68 125h177q-7 -59 -46.5 -131.5t-88.5 -118.5q-82 -80 -203 -108q-65 -16 -147 -16q-200 0 -339 145.5t-139 407.5q0 258 140 419t366 161 q114 0 221 -53.5zM865 621q-11 117 -51 187q-74 130 -247 130q-124 0 -208 -89.5t-89 -227.5h595zM561 1097zM691 1213h-137l-268 289h223z"></glyph><glyph glyph-name="eacute" unicode="é" d="M799 1041.5q107 -53.5 163 -138.5q54 -81 72 -189q16 -74 16 -236h-785q5 -163 77 -261.5t223 -98.5q141 0 225 93q48 54 68 125h177q-7 -59 -46.5 -131.5t-88.5 -118.5q-82 -80 -203 -108q-65 -16 -147 -16q-200 0 -339 145.5t-139 407.5q0 258 140 419t366 161 q114 0 221 -53.5zM865 621q-11 117 -51 187q-74 130 -247 130q-124 0 -208 -89.5t-89 -227.5h595zM561 1097zM786 1502l-267 -289h-138l183 289h222z"></glyph><glyph glyph-name="ecircumflex" unicode="ê" d="M799 1041.5q107 -53.5 163 -138.5q54 -81 72 -189q16 -74 16 -236h-785q5 -163 77 -261.5t223 -98.5q141 0 225 93q48 54 68 125h177q-7 -59 -46.5 -131.5t-88.5 -118.5q-82 -80 -203 -108q-65 -16 -147 -16q-200 0 -339 145.5t-139 407.5q0 258 140 419t366 161 q114 0 221 -53.5zM865 621q-11 117 -51 187q-74 130 -247 130q-124 0 -208 -89.5t-89 -227.5h595zM561 1097zM681 1502l204 -289h-164l-135 192l-135 -192h-163l203 289h190z"></glyph><glyph glyph-name="edieresis" unicode="ë" d="M799 1041.5q107 -53.5 163 -138.5q54 -81 72 -189q16 -74 16 -236h-785q5 -163 77 -261.5t223 -98.5q141 0 225 93q48 54 68 125h177q-7 -59 -46.5 -131.5t-88.5 -118.5q-82 -80 -203 -108q-65 -16 -147 -16q-200 0 -339 145.5t-139 407.5q0 258 140 419t366 161 q114 0 221 -53.5zM865 621q-11 117 -51 187q-74 130 -247 130q-124 0 -208 -89.5t-89 -227.5h595zM561 1097zM655 1445h187v-208h-187v208zM325 1445h187v-208h-187v208z"></glyph><glyph glyph-name="igrave" unicode="ì" d="M189 1066h183v-1066h-183v1066zM281 1097zM413 1213h-137l-268 289h223z"></glyph><glyph glyph-name="iacute" unicode="í" d="M189 1066h183v-1066h-183v1066zM281 1097zM508 1502l-267 -289h-138l183 289h222z"></glyph><glyph glyph-name="icircumflex" unicode="î" d="M189 1066h183v-1066h-183v1066zM281 1097zM393 1502l204 -289h-164l-135 192l-135 -192h-163l203 289h190z"></glyph><glyph glyph-name="idieresis" unicode="ï" d="M189 1066h183v-1066h-183v1066zM281 1097zM367 1445h187v-208h-187v208zM37 1445h187v-208h-187v208z"></glyph><glyph glyph-name="eth" unicode="ð" d="M781.5 231q87.5 111 87.5 319q0 177 -76 286.5t-237 109.5q-130 0 -216.5 -107t-86.5 -299q0 -153 40 -246q74 -174 278 -174q123 0 210.5 111zM644 1063q44 -12 83 -37q-58 89 -112 146t-165 160l-161 -112l-79 67l164 116l-149 123l132 97q43 -33 75 -58.5t84 -69.5 l150 105l75 -67l-151 -107q230 -217 339 -400q132 -224 132 -470q0 -248 -133 -420.5t-383 -172.5q-237 0 -360.5 158t-123.5 404q0 263 133 407t330 144q73 0 120 -13z"></glyph><glyph glyph-name="ntilde" unicode="ñ" d="M132 1071h171v-152q76 94 161 135t189 41q228 0 308 -159q44 -87 44 -249v-687h-183v675q0 98 -29 158q-48 100 -174 100q-64 0 -105 -13q-74 -22 -130 -88q-45 -53 -58.5 -109.5t-13.5 -161.5v-561h-180v1071zM555 1097zM661 1403q28 -12 51 -19t47 -7q56 0 80 35 q13 19 18 57h105q-21 -127 -80.5 -175t-130.5 -48q-22 0 -56 8t-60 18l-53 19q-47 17 -76.5 25.5t-57.5 8.5q-35 0 -57.5 -23t-30.5 -70h-98q13 79 43 129q57 92 169 92q34 0 75.5 -10t111.5 -40z"></glyph><glyph glyph-name="ograve" unicode="ò" d="M802.5 251.5q66.5 135.5 66.5 301.5q0 150 -48 244q-76 148 -262 148q-165 0 -240 -126t-75 -304q0 -171 75 -285t238 -114q179 0 245.5 135.5zM914 964q143 -138 143 -406q0 -259 -126 -428t-391 -169q-221 0 -351 149.5t-130 401.5q0 270 137 430t368 160 q207 0 350 -138zM558 1097zM678 1213h-137l-268 289h223z"></glyph><glyph glyph-name="oacute" unicode="ó" d="M802.5 251.5q66.5 135.5 66.5 301.5q0 150 -48 244q-76 148 -262 148q-165 0 -240 -126t-75 -304q0 -171 75 -285t238 -114q179 0 245.5 135.5zM914 964q143 -138 143 -406q0 -259 -126 -428t-391 -169q-221 0 -351 149.5t-130 401.5q0 270 137 430t368 160 q207 0 350 -138zM558 1097zM773 1502l-267 -289h-138l183 289h222z"></glyph><glyph glyph-name="ocircumflex" unicode="ô" d="M802.5 251.5q66.5 135.5 66.5 301.5q0 150 -48 244q-76 148 -262 148q-165 0 -240 -126t-75 -304q0 -171 75 -285t238 -114q179 0 245.5 135.5zM914 964q143 -138 143 -406q0 -259 -126 -428t-391 -169q-221 0 -351 149.5t-130 401.5q0 270 137 430t368 160 q207 0 350 -138zM558 1097zM668 1502l204 -289h-164l-135 192l-135 -192h-163l203 289h190z"></glyph><glyph glyph-name="otilde" unicode="õ" d="M802.5 251.5q66.5 135.5 66.5 301.5q0 150 -48 244q-76 148 -262 148q-165 0 -240 -126t-75 -304q0 -171 75 -285t238 -114q179 0 245.5 135.5zM914 964q143 -138 143 -406q0 -259 -126 -428t-391 -169q-221 0 -351 149.5t-130 401.5q0 270 137 430t368 160 q207 0 350 -138zM558 1097zM624 1403q28 -12 51 -19t47 -7q56 0 80 35q13 19 18 57h105q-21 -127 -80.5 -175t-130.5 -48q-22 0 -56 8t-60 18l-53 19q-47 17 -76.5 25.5t-57.5 8.5q-35 0 -57.5 -23t-30.5 -70h-98q13 79 43 129q57 92 169 92q34 0 75.5 -10t111.5 -40z"></glyph><glyph glyph-name="odieresis" unicode="ö" d="M802.5 251.5q66.5 135.5 66.5 301.5q0 150 -48 244q-76 148 -262 148q-165 0 -240 -126t-75 -304q0 -171 75 -285t238 -114q179 0 245.5 135.5zM914 964q143 -138 143 -406q0 -259 -126 -428t-391 -169q-221 0 -351 149.5t-130 401.5q0 270 137 430t368 160 q207 0 350 -138zM558 1097zM642 1445h187v-208h-187v208zM312 1445h187v-208h-187v208z"></glyph><glyph glyph-name="divide" unicode="÷" d="M509 21v220h211v-220h-211zM1135 606v-168h-1043v168h1043zM720 1024v-221h-211v221h211z"></glyph><glyph glyph-name="oslash" unicode="ø" d="M756 915.5q-62 29.5 -138 29.5q-145 0 -232.5 -121.5t-87.5 -312.5q0 -72 15 -138q9 -37 30 -94l503 564q-28 43 -90 72.5zM494 136q57 -20 116 -20q189 0 268 178q48 107 48 246q0 90 -15 155q-8 35 -27 82l-496 -564q49 -57 106 -77zM92 4l128 135q-50 74 -77 166 t-27 218q0 227 126.5 403.5t368.5 176.5q126 0 221 -46q56 -27 128 -88l125 142l52 -50l-128 -144q63 -92 90 -211q17 -77 17 -154q0 -258 -139 -425.5t-370 -167.5q-110 0 -196 32.5t-139 88.5l-121 -128z"></glyph><glyph glyph-name="ugrave" unicode="ù" d="M312 1071v-711q0 -82 26 -134q48 -96 179 -96q188 0 256 168q37 90 37 247v526h180v-1071h-170l2 158q-35 -61 -87 -103q-103 -84 -250 -84q-229 0 -312 153q-45 82 -45 219v728h184zM559 1097zM689 1213h-137l-268 289h223z"></glyph><glyph glyph-name="uacute" unicode="ú" d="M312 1071v-711q0 -82 26 -134q48 -96 179 -96q188 0 256 168q37 90 37 247v526h180v-1071h-170l2 158q-35 -61 -87 -103q-103 -84 -250 -84q-229 0 -312 153q-45 82 -45 219v728h184zM559 1097zM774 1502l-267 -289h-138l183 289h222z"></glyph><glyph glyph-name="ucircumflex" unicode="û" d="M312 1071v-711q0 -82 26 -134q48 -96 179 -96q188 0 256 168q37 90 37 247v526h180v-1071h-170l2 158q-35 -61 -87 -103q-103 -84 -250 -84q-229 0 -312 153q-45 82 -45 219v728h184zM559 1097zM669 1502l204 -289h-164l-135 192l-135 -192h-163l203 289h190z"></glyph><glyph glyph-name="udieresis" unicode="ü" d="M312 1071v-711q0 -82 26 -134q48 -96 179 -96q188 0 256 168q37 90 37 247v526h180v-1071h-170l2 158q-35 -61 -87 -103q-103 -84 -250 -84q-229 0 -312 153q-45 82 -45 219v728h184zM559 1097zM643 1445h187v-208h-187v208zM313 1445h187v-208h-187v208z"></glyph><glyph glyph-name="yacute" unicode="ý" d="M801 1071h199q-38 -103 -169 -470q-98 -276 -164 -450q-156 -410 -220 -500t-220 -90q-38 0 -58.5 3t-50.5 11v164q47 -13 68 -16t37 -3q50 0 73.5 16.5t39.5 40.5q5 8 36 82t45 110l-396 1102h204l287 -872zM511 1097zM765 1498l-267 -289h-138l183 289h222z"></glyph><glyph glyph-name="thorn" unicode="þ" d="M801 219.5q78 108.5 78 302.5q0 134 -36 225q-69 175 -254 175q-113 0 -202 -92.5t-89 -289.5q0 -171 37 -262q66 -167 255 -167q133 0 211 108.5zM405 1021q90 62 217 62q209 0 326 -150.5t117 -391.5q0 -302 -138 -444.5t-327 -142.5q-131 0 -215 62q-46 34 -82 93 v-546h-175v1892h170v-545q57 76 107 111z"></glyph><glyph glyph-name="ydieresis" unicode="ÿ" d="M801 1071h199q-38 -103 -169 -470q-98 -276 -164 -450q-156 -410 -220 -500t-220 -90q-38 0 -58.5 3t-50.5 11v164q47 -13 68 -16t37 -3q50 0 73.5 16.5t39.5 40.5q5 8 36 82t45 110l-396 1102h204l287 -872zM511 1097zM595 1445h187v-208h-187v208zM265 1445h187v-208 h-187v208z"></glyph><glyph glyph-name="Amacron" unicode="Ā" d="M910 602l-223 649l-237 -649h460zM583 1469h225l533 -1469h-218l-149 440h-581l-159 -440h-204zM686 1469zM381 1689h640v-118h-640v118z"></glyph><glyph glyph-name="amacron" unicode="ā" d="M327 162q57 -45 135 -45q95 0 184 44q150 73 150 239v145q-33 -21 -85 -35t-102 -20l-109 -14q-98 -13 -147 -41q-83 -47 -83 -150q0 -78 57 -123zM706 649q62 8 83 52q12 24 12 69q0 92 -65.5 133.5t-187.5 41.5q-141 0 -200 -76q-33 -42 -43 -125h-168 q5 198 128.5 275.5t286.5 77.5q189 0 307 -72q117 -72 117 -224v-617q0 -28 11.5 -45t48.5 -17q12 0 27 1.5t32 4.5v-133q-42 -12 -64 -15t-60 -3q-93 0 -135 66q-22 35 -31 99q-55 -72 -158 -125t-227 -53q-149 0 -243.5 90.5t-94.5 226.5q0 149 93 231t244 101zM557 1097z M232 1343h640v-118h-640v118z"></glyph><glyph glyph-name="Abreve" unicode="Ă" d="M500 1876q16 -65 47 -98q56 -59 174 -59q109 0 163 59q31 34 47 98h99q-20 -147 -103.5 -212t-225.5 -65q-177 0 -254 119q-40 62 -49 158h102zM910 602l-223 649l-237 -649h460zM583 1469h225l533 -1469h-218l-149 440h-581l-159 -440h-204z"></glyph><glyph glyph-name="abreve" unicode="ă" d="M344 1504q16 -65 47 -98q56 -59 174 -59q109 0 163 59q31 34 47 98h99q-20 -147 -103.5 -212t-225.5 -65q-177 0 -254 119q-40 62 -49 158h102zM462 117q95 0 184 44q150 73 150 239v145q-33 -21 -85 -35t-102 -20l-109 -14q-98 -13 -147 -41q-83 -47 -83 -150 q0 -78 57 -123t135 -45zM706 649q62 8 83 52q12 24 12 69q0 92 -65.5 133.5t-187.5 41.5q-141 0 -200 -76q-33 -42 -43 -125h-168q5 198 128.5 275.5t286.5 77.5q189 0 307 -72q117 -72 117 -224v-617q0 -28 11.5 -45t48.5 -17q12 0 27 1.5t32 4.5v-133q-42 -12 -64 -15 t-60 -3q-93 0 -135 66q-22 35 -31 99q-55 -72 -158 -125t-227 -53q-149 0 -243.5 90.5t-94.5 226.5q0 149 93 231t244 101z"></glyph><glyph glyph-name="Aogonek" unicode="Ą" d="M910 602l-223 649l-237 -649h460zM583 1469h225l533 -1469h-218l-149 440h-581l-159 -440h-204zM686 1469zM1343 0l-58 -48q-74 -60 -94.5 -91.5t-20.5 -70.5q0 -37 26.5 -64t77.5 -27q27 0 44 5t37 16v-131q-33 -14 -59 -21q-50 -13 -102 -13q-96 0 -147.5 56t-51.5 126 q0 81 58 146q46 52 143 117h147z"></glyph><glyph glyph-name="aogonek" unicode="ą" d="M327 162q57 -45 135 -45q95 0 184 44q150 73 150 239v145q-33 -21 -85 -35t-102 -20l-109 -14q-98 -13 -147 -41q-83 -47 -83 -150q0 -78 57 -123zM706 649q62 8 83 52q12 24 12 69q0 92 -65.5 133.5t-187.5 41.5q-141 0 -200 -76q-33 -42 -43 -125h-168 q5 198 128.5 275.5t286.5 77.5q189 0 307 -72q117 -72 117 -224v-617q0 -28 11.5 -45t48.5 -17q12 0 27 1.5t32 4.5v-133q-42 -12 -64 -15t-60 -3q-93 0 -135 66q-22 35 -31 99q-55 -72 -158 -125t-227 -53q-149 0 -243.5 90.5t-94.5 226.5q0 149 93 231t244 101zM557 1097z M1097 4l-58 -48q-74 -60 -94.5 -91.5t-20.5 -70.5q0 -37 26.5 -64t77.5 -27q27 0 44 5t37 16v-131q-33 -14 -59 -21q-50 -13 -102 -13q-96 0 -147.5 56t-51.5 126q0 81 58 146q46 52 143 117h147z"></glyph><glyph glyph-name="Cacute" unicode="Ć" d="M1208 1362q154 -147 171 -334h-194q-33 142 -131.5 225t-276.5 83q-217 0 -350.5 -152.5t-133.5 -467.5q0 -258 120.5 -418.5t359.5 -160.5q220 0 335 169q61 89 91 234h194q-26 -232 -172 -389q-175 -189 -472 -189q-256 0 -430 155q-229 205 -229 633q0 325 172 533 q186 226 513 226q279 0 433 -147zM735 1509zM1027 1923l-267 -289h-138l183 289h222z"></glyph><glyph glyph-name="cacute" unicode="ć" d="M839.5 1014q113.5 -88 136.5 -303h-175q-16 99 -73 164.5t-183 65.5q-172 0 -246 -168q-48 -109 -48 -269q0 -161 68 -271t214 -110q112 0 177.5 68.5t90.5 187.5h175q-30 -213 -150 -311.5t-307 -98.5q-210 0 -335 153.5t-125 383.5q0 282 137 439t349 157 q181 0 294.5 -88zM517 1097zM790 1517l-267 -289h-138l183 289h222z"></glyph><glyph glyph-name="Ccircumflex" unicode="Ĉ" d="M1208 1362q154 -147 171 -334h-194q-33 142 -131.5 225t-276.5 83q-217 0 -350.5 -152.5t-133.5 -467.5q0 -258 120.5 -418.5t359.5 -160.5q220 0 335 169q61 89 91 234h194q-26 -232 -172 -389q-175 -189 -472 -189q-256 0 -430 155q-229 205 -229 633q0 325 172 533 q186 226 513 226q279 0 433 -147zM735 1509zM876 1907l204 -289h-164l-135 192l-135 -192h-163l203 289h190z"></glyph><glyph glyph-name="ccircumflex" unicode="ĉ" d="M839.5 1014q113.5 -88 136.5 -303h-175q-16 99 -73 164.5t-183 65.5q-172 0 -246 -168q-48 -109 -48 -269q0 -161 68 -271t214 -110q112 0 177.5 68.5t90.5 187.5h175q-30 -213 -150 -311.5t-307 -98.5q-210 0 -335 153.5t-125 383.5q0 282 137 439t349 157 q181 0 294.5 -88zM517 1097zM668 1490l204 -289h-164l-135 192l-135 -192h-163l203 289h190z"></glyph><glyph glyph-name="Cdotaccent" unicode="Ċ" d="M1208 1362q154 -147 171 -334h-194q-33 142 -131.5 225t-276.5 83q-217 0 -350.5 -152.5t-133.5 -467.5q0 -258 120.5 -418.5t359.5 -160.5q220 0 335 169q61 89 91 234h194q-26 -232 -172 -389q-175 -189 -472 -189q-256 0 -430 155q-229 205 -229 633q0 325 172 533 q186 226 513 226q279 0 433 -147zM735 1509zM686 1881h187v-208h-187v208z"></glyph><glyph glyph-name="cdotaccent" unicode="ċ" d="M839.5 1014q113.5 -88 136.5 -303h-175q-16 99 -73 164.5t-183 65.5q-172 0 -246 -168q-48 -109 -48 -269q0 -161 68 -271t214 -110q112 0 177.5 68.5t90.5 187.5h175q-30 -213 -150 -311.5t-307 -98.5q-210 0 -335 153.5t-125 383.5q0 282 137 439t349 157 q181 0 294.5 -88zM517 1097zM463 1459h187v-208h-187v208z"></glyph><glyph glyph-name="Ccaron" unicode="Č" d="M1208 1362q154 -147 171 -334h-194q-33 142 -131.5 225t-276.5 83q-217 0 -350.5 -152.5t-133.5 -467.5q0 -258 120.5 -418.5t359.5 -160.5q220 0 335 169q61 89 91 234h194q-26 -232 -172 -389q-175 -189 -472 -189q-256 0 -430 155q-229 205 -229 633q0 325 172 533 q186 226 513 226q279 0 433 -147zM735 1509zM854 1625h-190l-203 289h163l135 -192l135 192h164z"></glyph><glyph glyph-name="ccaron" unicode="č" d="M839.5 1014q113.5 -88 136.5 -303h-175q-16 99 -73 164.5t-183 65.5q-172 0 -246 -168q-48 -109 -48 -269q0 -161 68 -271t214 -110q112 0 177.5 68.5t90.5 187.5h175q-30 -213 -150 -311.5t-307 -98.5q-210 0 -335 153.5t-125 383.5q0 282 137 439t349 157 q181 0 294.5 -88zM517 1097zM636 1213h-190l-203 289h163l135 -192l135 192h164z"></glyph><glyph glyph-name="Dcaron" unicode="Ď" d="M720 170q101 0 166 21q116 39 190 150q59 89 85 228q15 83 15 154q0 273 -108.5 424t-349.5 151h-353v-1128h355zM165 1469h595q303 0 470 -215q149 -194 149 -497q0 -234 -88 -423q-155 -334 -533 -334h-593v1469zM846 1581h-190l-203 289h163l135 -192l135 192h164z "></glyph><glyph glyph-name="dcaron" unicode="ď" d="M1107 1359q69 12 97 97q15 45 15 87q0 7 -0.5 12.5t-2.5 12.5h-109v218h214v-202q0 -119 -48 -209t-166 -111v95zM553 119q125 0 205.5 107.5t80.5 308.5q0 203 -83 300.5t-205 97.5q-136 0 -220.5 -104t-84.5 -306q0 -172 73 -288t234 -116zM723 1038q48 -30 109 -105 v541h173v-1474h-162v149q-63 -99 -149 -143t-197 -44q-179 0 -310 150.5t-131 400.5q0 234 119.5 405.5t341.5 171.5q123 0 206 -52z"></glyph><glyph glyph-name="Dcroat" unicode="Đ" d="M33 865h132v604h562q365 0 531 -251q121 -183 121 -459q0 -244 -93 -436q-156 -323 -528 -323h-593v687h-132v178zM365 865h419v-178h-419v-517h355q101 0 166 21q116 39 190 150q59 89 85 228q15 83 15 154q0 273 -108.5 424t-349.5 151h-353v-433z"></glyph><glyph glyph-name="dcroat" unicode="đ" d="M319 235q73 -116 234 -116q125 0 205.5 107.5t80.5 308.5q0 203 -83 300.5t-205 97.5q-136 0 -220.5 -104t-84.5 -306q0 -172 73 -288zM723 1038q48 -30 109 -105v278h-334v118h334v145h173v-145h133v-118h-133v-1211h-162v149q-63 -99 -149 -143t-197 -44 q-179 0 -310 150.5t-131 400.5q0 234 119.5 405.5t341.5 171.5q123 0 206 -52z"></glyph><glyph glyph-name="Emacron" unicode="Ē" d="M175 1469h1071v-180h-877v-446h811v-170h-811v-498h892v-175h-1086v1469zM718 1469zM424 1713h640v-118h-640v118z"></glyph><glyph glyph-name="emacron" unicode="ē" d="M799 1041.5q107 -53.5 163 -138.5q54 -81 72 -189q16 -74 16 -236h-785q5 -163 77 -261.5t223 -98.5q141 0 225 93q48 54 68 125h177q-7 -59 -46.5 -131.5t-88.5 -118.5q-82 -80 -203 -108q-65 -16 -147 -16q-200 0 -339 145.5t-139 407.5q0 258 140 419t366 161 q114 0 221 -53.5zM865 621q-11 117 -51 187q-74 130 -247 130q-124 0 -208 -89.5t-89 -227.5h595zM561 1097zM267 1329h640v-118h-640v118z"></glyph><glyph glyph-name="Ebreve" unicode="Ĕ" d="M526 1872q16 -65 47 -98q56 -59 174 -59q109 0 163 59q31 34 47 98h99q-20 -147 -103.5 -212t-225.5 -65q-177 0 -254 119q-40 62 -49 158h102zM175 1469h1071v-180h-877v-446h811v-170h-811v-498h892v-175h-1086v1469z"></glyph><glyph glyph-name="ebreve" unicode="ĕ" d="M371 1494q16 -65 47 -98q56 -59 174 -59q109 0 163 59q31 34 47 98h99q-20 -147 -103.5 -212t-225.5 -65q-177 0 -254 119q-40 62 -49 158h102zM962 903q54 -81 72 -189q16 -74 16 -236h-785q5 -163 77 -261.5t223 -98.5q141 0 225 93q48 54 68 125h177 q-7 -59 -46.5 -131.5t-88.5 -118.5q-82 -80 -203 -108q-65 -16 -147 -16q-200 0 -339 145.5t-139 407.5q0 258 140 419t366 161q114 0 221 -53.5t163 -138.5zM865 621q-11 117 -51 187q-74 130 -247 130q-124 0 -208 -89.5t-89 -227.5h595z"></glyph><glyph glyph-name="Edotaccent" unicode="Ė" d="M175 1469h1071v-180h-877v-446h811v-170h-811v-498h892v-175h-1086v1469zM718 1469zM649 1823h187v-208h-187v208z"></glyph><glyph glyph-name="edotaccent" unicode="ė" d="M799 1041.5q107 -53.5 163 -138.5q54 -81 72 -189q16 -74 16 -236h-785q5 -163 77 -261.5t223 -98.5q141 0 225 93q48 54 68 125h177q-7 -59 -46.5 -131.5t-88.5 -118.5q-82 -80 -203 -108q-65 -16 -147 -16q-200 0 -339 145.5t-139 407.5q0 258 140 419t366 161 q114 0 221 -53.5zM865 621q-11 117 -51 187q-74 130 -247 130q-124 0 -208 -89.5t-89 -227.5h595zM561 1097zM492 1417h187v-208h-187v208z"></glyph><glyph glyph-name="Eogonek" unicode="Ę" d="M175 1469h1071v-180h-877v-446h811v-170h-811v-498h892v-175h-1086v1469zM718 1469zM1000 0l-58 -48q-74 -60 -94.5 -91.5t-20.5 -70.5q0 -37 26.5 -64t77.5 -27q27 0 44 5t37 16v-131q-33 -14 -59 -21q-50 -13 -102 -13q-96 0 -147.5 56t-51.5 126q0 81 58 146 q46 52 143 117h147z"></glyph><glyph glyph-name="eogonek" unicode="ę" d="M799 1041.5q107 -53.5 163 -138.5q54 -81 72 -189q16 -74 16 -236h-785q5 -163 77 -261.5t223 -98.5q141 0 225 93q48 54 68 125h177q-7 -59 -46.5 -131.5t-88.5 -118.5q-82 -80 -203 -108q-65 -16 -147 -16q-200 0 -339 145.5t-139 407.5q0 258 140 419t366 161 q114 0 221 -53.5zM865 621q-11 117 -51 187q-74 130 -247 130q-124 0 -208 -89.5t-89 -227.5h595zM561 1097zM698 -16l-58 -48q-74 -60 -94.5 -91.5t-20.5 -70.5q0 -37 26.5 -64t77.5 -27q27 0 44 5t37 16v-131q-33 -14 -59 -21q-50 -13 -102 -13q-96 0 -147.5 56t-51.5 126 q0 81 58 146q46 52 143 117h147z"></glyph><glyph glyph-name="Ecaron" unicode="Ě" d="M175 1469h1071v-180h-877v-446h811v-170h-811v-498h892v-175h-1086v1469zM718 1469zM799 1567h-190l-203 289h163l135 -192l135 192h164z"></glyph><glyph glyph-name="ecaron" unicode="ě" d="M799 1041.5q107 -53.5 163 -138.5q54 -81 72 -189q16 -74 16 -236h-785q5 -163 77 -261.5t223 -98.5q141 0 225 93q48 54 68 125h177q-7 -59 -46.5 -131.5t-88.5 -118.5q-82 -80 -203 -108q-65 -16 -147 -16q-200 0 -339 145.5t-139 407.5q0 258 140 419t366 161 q114 0 221 -53.5zM865 621q-11 117 -51 187q-74 130 -247 130q-124 0 -208 -89.5t-89 -227.5h595zM561 1097zM663 1211h-190l-203 289h163l135 -192l135 192h164z"></glyph><glyph glyph-name="Gcircumflex" unicode="Ĝ" d="M1149 1427q219 -115 268 -403h-197q-36 161 -149 234.5t-285 73.5q-204 0 -343.5 -153t-139.5 -456q0 -262 115 -426.5t375 -164.5q199 0 329.5 115.5t133.5 373.5h-460v165h645v-786h-128l-48 189q-101 -111 -179 -154q-131 -74 -333 -74q-261 0 -449 169 q-205 212 -205 582q0 369 200 587q190 208 492 208q207 0 358 -80zM758 1509zM915 1893l204 -289h-164l-135 192l-135 -192h-163l203 289h190z"></glyph><glyph glyph-name="gcircumflex" unicode="ĝ" d="M730 1028q51 -35 104 -102v135h166v-974q0 -204 -60 -322q-112 -218 -423 -218q-173 0 -291 77.5t-132 242.5h183q13 -72 52 -111q61 -60 192 -60q207 0 271 146q38 86 35 307q-54 -82 -130 -122t-201 -40q-174 0 -304.5 123.5t-130.5 408.5q0 269 131.5 420t317.5 151 q126 0 220 -62zM752 835q-82 96 -209 96q-190 0 -260 -178q-37 -95 -37 -249q0 -181 73.5 -275.5t197.5 -94.5q194 0 273 175q44 99 44 231q0 199 -82 295zM531 1097zM610 1464l204 -289h-164l-135 192l-135 -192h-163l203 289h190z"></glyph><glyph glyph-name="Gbreve" unicode="Ğ" d="M587 1912q16 -65 47 -98q56 -59 174 -59q109 0 163 59q31 34 47 98h99q-20 -147 -103.5 -212t-225.5 -65q-177 0 -254 119q-40 62 -49 158h102zM1149 1427q219 -115 268 -403h-197q-36 161 -149 234.5t-285 73.5q-204 0 -343.5 -153t-139.5 -456q0 -262 115 -426.5 t375 -164.5q199 0 329.5 115.5t133.5 373.5h-460v165h645v-786h-128l-48 189q-101 -111 -179 -154q-131 -74 -333 -74q-261 0 -449 169q-205 212 -205 582q0 369 200 587q190 208 492 208q207 0 358 -80z"></glyph><glyph glyph-name="gbreve" unicode="ğ" d="M320 1500q16 -65 47 -98q56 -59 174 -59q109 0 163 59q31 34 47 98h99q-20 -147 -103.5 -212t-225.5 -65q-177 0 -254 119q-40 62 -49 158h102zM730 1028q51 -35 104 -102v135h166v-974q0 -204 -60 -322q-112 -218 -423 -218q-173 0 -291 77.5t-132 242.5h183 q13 -72 52 -111q61 -60 192 -60q207 0 271 146q38 86 35 307q-54 -82 -130 -122t-201 -40q-174 0 -304.5 123.5t-130.5 408.5q0 269 131.5 420t317.5 151q126 0 220 -62zM543 931q-190 0 -260 -178q-37 -95 -37 -249q0 -181 73.5 -275.5t197.5 -94.5q194 0 273 175 q44 99 44 231q0 199 -82 295t-209 96z"></glyph><glyph glyph-name="Gdotaccent" unicode="Ġ" d="M1149 1427q219 -115 268 -403h-197q-36 161 -149 234.5t-285 73.5q-204 0 -343.5 -153t-139.5 -456q0 -262 115 -426.5t375 -164.5q199 0 329.5 115.5t133.5 373.5h-460v165h645v-786h-128l-48 189q-101 -111 -179 -154q-131 -74 -333 -74q-261 0 -449 169 q-205 212 -205 582q0 369 200 587q190 208 492 208q207 0 358 -80zM758 1509zM696 1852h187v-208h-187v208z"></glyph><glyph glyph-name="gdotaccent" unicode="ġ" d="M730 1028q51 -35 104 -102v135h166v-974q0 -204 -60 -322q-112 -218 -423 -218q-173 0 -291 77.5t-132 242.5h183q13 -72 52 -111q61 -60 192 -60q207 0 271 146q38 86 35 307q-54 -82 -130 -122t-201 -40q-174 0 -304.5 123.5t-130.5 408.5q0 269 131.5 420t317.5 151 q126 0 220 -62zM752 835q-82 96 -209 96q-190 0 -260 -178q-37 -95 -37 -249q0 -181 73.5 -275.5t197.5 -94.5q194 0 273 175q44 99 44 231q0 199 -82 295zM531 1097zM414 1473h187v-208h-187v208z"></glyph><glyph glyph-name="Gcommaaccent" unicode="Ģ" d="M1149 1427q219 -115 268 -403h-197q-36 161 -149 234.5t-285 73.5q-204 0 -343.5 -153t-139.5 -456q0 -262 115 -426.5t375 -164.5q199 0 329.5 115.5t133.5 373.5h-460v165h645v-786h-128l-48 189q-101 -111 -179 -154q-131 -74 -333 -74q-261 0 -449 169 q-205 212 -205 582q0 369 200 587q190 208 492 208q207 0 358 -80zM758 1509zM690 -588q69 12 97 97q15 45 15 87q0 7 -0.5 12.5t-2.5 12.5h-109v218h214v-202q0 -119 -48 -209t-166 -111v95z"></glyph><glyph glyph-name="gcommaaccent" unicode="ģ" d="M730 1028q51 -35 104 -102v135h166v-974q0 -204 -60 -322q-112 -218 -423 -218q-173 0 -291 77.5t-132 242.5h183q13 -72 52 -111q61 -60 192 -60q207 0 271 146q38 86 35 307q-54 -82 -130 -122t-201 -40q-174 0 -304.5 123.5t-130.5 408.5q0 269 131.5 420t317.5 151 q126 0 220 -62zM752 835q-82 96 -209 96q-190 0 -260 -178q-37 -95 -37 -249q0 -181 73.5 -275.5t197.5 -94.5q194 0 273 175q44 99 44 231q0 199 -82 295zM531 1097zM663.114 1670.86q-68.9541 -11.9912 -96.9346 -96.9346q-14.9902 -44.9697 -14.9902 -86.9414 q0 -6.99512 0.5 -12.4922q0.499023 -5.49609 2.49805 -12.4912h108.927v-217.854h-213.856v201.864q0 118.92 47.9678 208.859t165.889 110.926v-94.9365z"></glyph><glyph glyph-name="Hcircumflex" unicode="Ĥ" d="M161 1469h201v-607h764v607h201v-1469h-201v687h-764v-687h-201v1469zM858 1821l204 -289h-164l-135 192l-135 -192h-163l203 289h190z"></glyph><glyph glyph-name="hcircumflex" unicode="ĥ" d="M132 1474h180v-548q64 81 115 114q87 57 217 57q233 0 316 -163q45 -89 45 -247v-687h-185v675q0 118 -30 173q-49 88 -184 88q-112 0 -203 -77t-91 -291v-568h-180v1474zM747 1842l204 -289h-164l-135 192l-135 -192h-163l203 289h190z"></glyph><glyph glyph-name="Hbar" unicode="Ħ" d="M53 1261h108v208h201v-208h764v208h201v-208h113v-147h-113v-1114h-201v687h-764v-687h-201v1114h-108v147zM1126 862v252h-764v-252h764z"></glyph><glyph glyph-name="hbar" unicode="ħ" d="M132 1474h180v-548q64 81 115 114q87 57 217 57q233 0 316 -163q45 -89 45 -247v-687h-185v675q0 118 -30 173q-49 88 -184 88q-112 0 -203 -77t-91 -291v-568h-180v1474zM62 1318h640v-118h-640v118z"></glyph><glyph glyph-name="Itilde" unicode="Ĩ" d="M345 1474h201v-1469h-201v1469zM504 1807q28 -12 51 -19t47 -7q56 0 80 35q13 19 18 57h105q-21 -127 -80.5 -175t-130.5 -48q-22 0 -56 8t-60 18l-53 19q-47 17 -76.5 25.5t-57.5 8.5q-35 0 -57.5 -23t-30.5 -70h-98q13 79 43 129q57 92 169 92q34 0 75.5 -10t111.5 -40 z"></glyph><glyph glyph-name="itilde" unicode="ĩ" d="M308 1072h183v-1066h-183v1066zM400 1103zM467 1505q28 -12 51 -19t47 -7q56 0 80 35q13 19 18 57h105q-21 -127 -80.5 -175t-130.5 -48q-22 0 -56 8t-60 18l-53 19q-47 17 -76.5 25.5t-57.5 8.5q-35 0 -57.5 -23t-30.5 -70h-98q13 79 43 129q57 92 169 92q34 0 75.5 -10 t111.5 -40z"></glyph><glyph glyph-name="Imacron" unicode="Ī" d="M313 1469h201v-1469h-201v1469zM89 1689h640v-118h-640v118z"></glyph><glyph glyph-name="imacron" unicode="ī" d="M314 1066h183v-1066h-183v1066zM406 1097zM101 1324h640v-118h-640v118z"></glyph><glyph glyph-name="Ibreve" unicode="Ĭ" d="M201 1469h201v-1469h-201v1469zM97 1898q16 -65 47 -98q56 -59 174 -59q109 0 163 59q31 34 47 98h99q-20 -147 -103.5 -212t-225.5 -65q-177 0 -254 119q-40 62 -49 158h102z"></glyph><glyph glyph-name="ibreve" unicode="ĭ" d="M189 1066h183v-1066h-183v1066zM281 1097zM97 1500q16 -65 47 -98q56 -59 174 -59q109 0 163 59q31 34 47 98h99q-20 -147 -103.5 -212t-225.5 -65q-177 0 -254 119q-40 62 -49 158h102z"></glyph><glyph glyph-name="Iogonek" unicode="Į" d="M188 1469h201v-1469h-201v1469zM401 0l-58 -48q-74 -60 -94.5 -91.5t-20.5 -70.5q0 -37 26.5 -64t77.5 -27q27 0 44 5t37 16v-131q-33 -14 -59 -21q-50 -13 -102 -13q-96 0 -147.5 56t-51.5 126q0 81 58 146q46 52 143 117h147z"></glyph><glyph glyph-name="iogonek" unicode="į" d="M132 1066h183v-1066h-183v1066zM132 1469h183v-204h-183v204zM315 10l-58 -48q-74 -60 -94.5 -91.5t-20.5 -70.5q0 -37 26.5 -64t77.5 -27q27 0 44 5t37 16v-131q-33 -14 -59 -21q-50 -13 -102 -13q-96 0 -147.5 56t-51.5 126q0 81 58 146q46 52 143 117h147z"></glyph><glyph glyph-name="Idotaccent" unicode="İ" d="M201 1469h201v-1469h-201v1469zM205 1814h187v-208h-187v208z"></glyph><glyph glyph-name="dotlessi" unicode="ı" d="M189 1066h183v-1066h-183v1066zM281 1097z"></glyph><glyph glyph-name="IJ" unicode="Ĳ" d="M201 1469h201v-1469h-201v1469zM1446 438q0 -186 -55 -289q-102 -188 -388 -188q-165 0 -282 89.5t-117 318.5v105h187v-105q0 -120 53.5 -180.5t166.5 -60.5q159 0 208 109q30 67 30 253v979h197v-1031z"></glyph><glyph glyph-name="ij" unicode="ĳ" d="M132 1066h183v-1066h-183v1066zM132 1469h183v-204h-183v204zM767 1261h-180v208h180v-208zM417 -271q121 4 145.5 21.5t24.5 109.5v1206h180v-1225q0 -117 -38 -175q-63 -98 -239 -98q-13 0 -27.5 1t-45.5 4v156z"></glyph><glyph glyph-name="Jcircumflex" unicode="Ĵ" d="M877 438q0 -186 -55 -289q-102 -188 -388 -188q-165 0 -282 89.5t-117 318.5v105h187v-105q0 -120 53.5 -180.5t166.5 -60.5q159 0 208 109q30 67 30 253v979h197v-1031zM874 1840l204 -289h-164l-135 192l-135 -192h-163l203 289h190z"></glyph><glyph glyph-name="jcircumflex" unicode="ĵ" d="M-38 -271q121 4 145.5 21.5t24.5 109.5v1206h180v-1225q0 -117 -38 -175q-63 -98 -239 -98q-13 0 -27.5 1t-45.5 4v156zM300 1492l204 -289h-164l-135 192l-135 -192h-163l203 289h190z"></glyph><glyph glyph-name="Kcommaaccent" unicode="Ķ" d="M156 1469h194v-716l716 716h275l-611 -592l628 -877h-259l-514 737l-235 -225v-512h-194v1469zM520 -518q69 12 97 97q15 45 15 87q0 7 -0.5 12.5t-2.5 12.5h-109v218h214v-202q0 -119 -48 -209t-166 -111v95z"></glyph><glyph glyph-name="kcommaaccent" unicode="ķ" d="M128 1469h173v-853l462 455h230l-410 -401l433 -670h-230l-334 540l-151 -138v-402h-173v1469zM420 -528q69 12 97 97q15 45 15 87q0 7 -0.5 12.5t-2.5 12.5h-109v218h214v-202q0 -119 -48 -209t-166 -111v95z"></glyph><glyph glyph-name="kgreenlandic" unicode="ĸ" d="M128 1071h173v-455l462 455h230l-410 -401l433 -670h-230l-334 540l-151 -138v-402h-173v1071z"></glyph><glyph glyph-name="Lacute" unicode="Ĺ" d="M156 1469h199v-1294h744v-175h-943v1469zM585 1826l-267 -289h-138l183 289h222z"></glyph><glyph glyph-name="lacute" unicode="ĺ" d="M137 1469h180v-1469h-180v1469zM536 1820l-267 -289h-138l183 289h222z"></glyph><glyph glyph-name="Lcommaaccent" unicode="Ļ" d="M156 1469h199v-1294h744v-175h-943v1469zM520 -538q69 12 97 97q15 45 15 87q0 7 -0.5 12.5t-2.5 12.5h-109v218h214v-202q0 -119 -48 -209t-166 -111v95z"></glyph><glyph glyph-name="lcommaaccent" unicode="ļ" d="M137 1469h180v-1469h-180v1469zM142 -538q69 12 97 97q15 45 15 87q0 7 -0.5 12.5t-2.5 12.5h-109v218h214v-202q0 -119 -48 -209t-166 -111v95z"></glyph><glyph glyph-name="Lcaron" unicode="Ľ" d="M812 1042q69 12 97 97q15 45 15 87q0 7 -0.5 12.5t-2.5 12.5h-109v218h214v-202q0 -119 -48 -209t-166 -111v95zM156 1469h199v-1294h744v-175h-943v1469z"></glyph><glyph glyph-name="lcaron" unicode="ľ" d="M418 1469h152v-553h-152v553zM78 1469h180v-1469h-180v1469z"></glyph><glyph glyph-name="Ldotaccent" unicode="Ŀ" d="M156 1469h199v-1294h744v-175h-943v1469zM603 887h187v-208h-187v208z"></glyph><glyph glyph-name="ldotaccent" unicode="ŀ" d="M137 1469h180v-1469h-180v1469zM443 920h187v-208h-187v208z"></glyph><glyph glyph-name="Lslash" unicode="Ł" d="M-24 485v152l180 112v720h199v-602l322 197v-157l-322 -196v-536h744v-175h-943v594z"></glyph><glyph glyph-name="lslash" unicode="ł" d="M317 0h-180v613l-178 -106v135l178 111v716h180v-604l178 109v-135l-178 -109v-730z"></glyph><glyph glyph-name="Nacute" unicode="Ń" d="M156 1469h235l742 -1190v1190h189v-1469h-223l-753 1189v-1189h-190v1469zM726 1469zM1058 1816l-267 -289h-138l183 289h222z"></glyph><glyph glyph-name="nacute" unicode="ń" d="M132 1071h171v-152q76 94 161 135t189 41q228 0 308 -159q44 -87 44 -249v-687h-183v675q0 98 -29 158q-48 100 -174 100q-64 0 -105 -13q-74 -22 -130 -88q-45 -53 -58.5 -109.5t-13.5 -161.5v-561h-180v1071zM555 1097zM909 1486l-267 -289h-138l183 289h222z"></glyph><glyph glyph-name="Ncommaaccent" unicode="Ņ" d="M156 1469h235l742 -1190v1190h189v-1469h-223l-753 1189v-1189h-190v1469zM726 1469zM588 -548q69 12 97 97q15 45 15 87q0 7 -0.5 12.5t-2.5 12.5h-109v218h214v-202q0 -119 -48 -209t-166 -111v95z"></glyph><glyph glyph-name="ncommaaccent" unicode="ņ" d="M132 1071h171v-152q76 94 161 135t189 41q228 0 308 -159q44 -87 44 -249v-687h-183v675q0 98 -29 158q-48 100 -174 100q-64 0 -105 -13q-74 -22 -130 -88q-45 -53 -58.5 -109.5t-13.5 -161.5v-561h-180v1071zM555 1097zM450 -528q69 12 97 97q15 45 15 87 q0 7 -0.5 12.5t-2.5 12.5h-109v218h214v-202q0 -119 -48 -209t-166 -111v95z"></glyph><glyph glyph-name="Ncaron" unicode="Ň" d="M156 1469h235l742 -1190v1190h189v-1469h-223l-753 1189v-1189h-190v1469zM726 1469zM848 1538h-190l-203 289h163l135 -192l135 192h164z"></glyph><glyph glyph-name="ncaron" unicode="ň" d="M132 1071h171v-152q76 94 161 135t189 41q228 0 308 -159q44 -87 44 -249v-687h-183v675q0 98 -29 158q-48 100 -174 100q-64 0 -105 -13q-74 -22 -130 -88q-45 -53 -58.5 -109.5t-13.5 -161.5v-561h-180v1071zM555 1097zM721 1202h-190l-203 289h163l135 -192l135 192 h164z"></glyph><glyph glyph-name="napostrophe" unicode="ŉ" d="M232 1071h171v-152q76 94 161 135t189 41q228 0 308 -159q44 -87 44 -249v-687h-183v675q0 98 -29 158q-48 100 -174 100q-64 0 -105 -13q-74 -22 -130 -88q-45 -53 -58.5 -109.5t-13.5 -161.5v-561h-180v1071zM655 1097zM14 1294q69 12 97 97q15 45 15 87q0 7 -0.5 12.5 t-2.5 12.5h-109v218h214v-202q0 -119 -48 -209t-166 -111v95z"></glyph><glyph glyph-name="Eng" unicode="Ŋ" d="M972 -271q121 4 145.5 21.5t24.5 109.5v140h-43l-753 1189v-1189h-190v1469h235l742 -1190v1190h189v-1628q0 -117 -38 -175q-63 -98 -239 -98q-13 0 -27.5 1t-45.5 4v156z"></glyph><glyph glyph-name="eng" unicode="ŋ" d="M655 -271q121 4 145.5 21.5t24.5 109.5v140h-3v675q0 98 -29 158q-48 100 -174 100q-64 0 -105 -13q-74 -22 -130 -88q-45 -53 -58.5 -109.5t-13.5 -161.5v-561h-180v1071h171v-152q76 94 161 135t189 41q228 0 308 -159q44 -87 44 -249v-846q0 -117 -38 -175 q-63 -98 -239 -98q-13 0 -27.5 1t-45.5 4v156z"></glyph><glyph glyph-name="Omacron" unicode="Ō" d="M1366 1259q146 -195 146 -499q0 -329 -167 -547q-196 -256 -559 -256q-339 0 -533 224q-173 216 -173 546q0 298 148 510q190 272 562 272q389 0 576 -250zM1190.5 323.5q117.5 188.5 117.5 433.5q0 259 -135.5 417t-370.5 158q-228 0 -372 -156.5t-144 -461.5 q0 -244 123.5 -411.5t400.5 -167.5q263 0 380.5 188.5zM796 1509zM458 1739h640v-118h-640v118z"></glyph><glyph glyph-name="omacron" unicode="ō" d="M802.5 251.5q66.5 135.5 66.5 301.5q0 150 -48 244q-76 148 -262 148q-165 0 -240 -126t-75 -304q0 -171 75 -285t238 -114q179 0 245.5 135.5zM914 964q143 -138 143 -406q0 -259 -126 -428t-391 -169q-221 0 -351 149.5t-130 401.5q0 270 137 430t368 160 q207 0 350 -138zM558 1097zM225 1344h640v-118h-640v118z"></glyph><glyph glyph-name="Obreve" unicode="Ŏ" d="M578 1895q16 -65 47 -98q56 -59 174 -59q109 0 163 59q31 34 47 98h99q-20 -147 -103.5 -212t-225.5 -65q-177 0 -254 119q-40 62 -49 158h102zM1366 1259q146 -195 146 -499q0 -329 -167 -547q-196 -256 -559 -256q-339 0 -533 224q-173 216 -173 546q0 298 148 510 q190 272 562 272q389 0 576 -250zM1308 757q0 259 -135.5 417t-370.5 158q-228 0 -372 -156.5t-144 -461.5q0 -244 123.5 -411.5t400.5 -167.5q263 0 380.5 188.5t117.5 433.5z"></glyph><glyph glyph-name="obreve" unicode="ŏ" d="M365 1473q16 -65 47 -98q56 -59 174 -59q109 0 163 59q31 34 47 98h99q-20 -147 -103.5 -212t-225.5 -65q-177 0 -254 119q-40 62 -49 158h102zM869 553q0 150 -48 244q-76 148 -262 148q-165 0 -240 -126t-75 -304q0 -171 75 -285t238 -114q179 0 245.5 135.5 t66.5 301.5zM1057 558q0 -259 -126 -428t-391 -169q-221 0 -351 149.5t-130 401.5q0 270 137 430t368 160q207 0 350 -138t143 -406z"></glyph><glyph glyph-name="Ohungarumlaut" unicode="Ő" d="M1366 1259q146 -195 146 -499q0 -329 -167 -547q-196 -256 -559 -256q-339 0 -533 224q-173 216 -173 546q0 298 148 510q190 272 562 272q389 0 576 -250zM1190.5 323.5q117.5 188.5 117.5 433.5q0 259 -135.5 417t-370.5 158q-228 0 -372 -156.5t-144 -461.5 q0 -244 123.5 -411.5t400.5 -167.5q263 0 380.5 188.5zM796 1509zM1005 1902h214l-224 -291h-127zM672 1902h216l-227 -291h-126z"></glyph><glyph glyph-name="ohungarumlaut" unicode="ő" d="M802.5 251.5q66.5 135.5 66.5 301.5q0 150 -48 244q-76 148 -262 148q-165 0 -240 -126t-75 -304q0 -171 75 -285t238 -114q179 0 245.5 135.5zM914 964q143 -138 143 -406q0 -259 -126 -428t-391 -169q-221 0 -351 149.5t-130 401.5q0 270 137 430t368 160 q207 0 350 -138zM558 1097zM744 1522h214l-224 -291h-127zM411 1522h216l-227 -291h-126z"></glyph><glyph glyph-name="OE" unicode="Œ" d="M950.5 211q108.5 83 108.5 279v517q0 154 -101 243t-250 89q-255 0 -364 -242q-70 -157 -70 -384q0 -255 106 -420t336 -165q126 0 234.5 83zM922.5 1453.5q94.5 -48.5 148.5 -133.5v149h901v-175h-711v-451h677v-170h-677v-498h715v-175h-907v154q-45 -79 -146 -133.5 t-266 -54.5q-222 0 -404 189q-180 208 -180 565q0 295 125 505q164 277 502 277q128 0 222.5 -48.5z"></glyph><glyph glyph-name="oe" unicode="œ" d="M204 934.5q133 164.5 374 164.5q169 0 280 -81q62 -45 116 -130q64 99 167 154t232 55q119 0 215.5 -48.5t162.5 -143.5q61 -87 81 -203q12 -71 14 -224h-794q5 -132 46 -213q76 -154 269 -154q135 0 214 91q44 49 73 134h180q-42 -177 -169.5 -278t-301.5 -101 q-118 0 -221.5 47t-186.5 171q-70 -122 -174 -169t-217 -47q-208 0 -350.5 142.5t-142.5 421.5q0 247 133 411.5zM1659 616q-8 116 -49 188q-75 134 -253 134q-89 0 -165 -53q-118 -83 -138 -269h605zM786.5 208q97.5 95 97.5 341q0 197 -88 295.5t-224 98.5 q-134 0 -225 -106t-91 -325q0 -184 89.5 -291.5t230.5 -107.5q113 0 210.5 95z"></glyph><glyph glyph-name="Racute" unicode="Ŕ" d="M839 796q140 0 221.5 56t81.5 202q0 157 -114 214q-61 30 -163 30h-486v-502h460zM180 1469h680q168 0 277 -49q207 -94 207 -347q0 -132 -54.5 -216t-152.5 -135q86 -35 129.5 -92t48.5 -185l7 -197q3 -84 14 -125q18 -70 64 -90v-33h-244q-10 19 -16 49t-10 116 l-12 245q-7 144 -107 193q-57 27 -179 27h-453v-630h-199v1469zM914 1869l-267 -289h-138l183 289h222z"></glyph><glyph glyph-name="racute" unicode="ŕ" d="M137 1071h171v-185q21 54 103 131.5t189 77.5q5 0 17 -1t41 -4v-190q-16 3 -29.5 4t-29.5 1q-136 0 -209 -87.5t-73 -201.5v-616h-180v1071zM549 1499l-267 -289h-138l183 289h222z"></glyph><glyph glyph-name="Rcommaaccent" unicode="Ŗ" d="M839 796q140 0 221.5 56t81.5 202q0 157 -114 214q-61 30 -163 30h-486v-502h460zM180 1469h680q168 0 277 -49q207 -94 207 -347q0 -132 -54.5 -216t-152.5 -135q86 -35 129.5 -92t48.5 -185l7 -197q3 -84 14 -125q18 -70 64 -90v-33h-244q-10 19 -16 49t-10 116 l-12 245q-7 144 -107 193q-57 27 -179 27h-453v-630h-199v1469zM633 -513q69 12 97 97q15 45 15 87q0 7 -0.5 12.5t-2.5 12.5h-109v218h214v-202q0 -119 -48 -209t-166 -111v95z"></glyph><glyph glyph-name="rcommaaccent" unicode="ŗ" d="M137 1071h171v-185q21 54 103 131.5t189 77.5q5 0 17 -1t41 -4v-190q-16 3 -29.5 4t-29.5 1q-136 0 -209 -87.5t-73 -201.5v-616h-180v1071zM142 -528q69 12 97 97q15 45 15 87q0 7 -0.5 12.5t-2.5 12.5h-109v218h214v-202q0 -119 -48 -209t-166 -111v95z"></glyph><glyph glyph-name="Rcaron" unicode="Ř" d="M839 796q140 0 221.5 56t81.5 202q0 157 -114 214q-61 30 -163 30h-486v-502h460zM180 1469h680q168 0 277 -49q207 -94 207 -347q0 -132 -54.5 -216t-152.5 -135q86 -35 129.5 -92t48.5 -185l7 -197q3 -84 14 -125q18 -70 64 -90v-33h-244q-10 19 -16 49t-10 116 l-12 245q-7 144 -107 193q-57 27 -179 27h-453v-630h-199v1469zM796 1556h-190l-203 289h163l135 -192l135 192h164z"></glyph><glyph glyph-name="rcaron" unicode="ř" d="M137 1071h171v-185q21 54 103 131.5t189 77.5q5 0 17 -1t41 -4v-190q-16 3 -29.5 4t-29.5 1q-136 0 -209 -87.5t-73 -201.5v-616h-180v1071zM459 1204h-190l-203 289h163l135 -192l135 192h164z"></glyph><glyph glyph-name="Sacute" unicode="Ś" d="M286 474q7 -125 59 -203q99 -146 349 -146q112 0 204 32q178 62 178 222q0 120 -75 171q-76 50 -238 87l-199 45q-195 44 -276 97q-140 92 -140 275q0 198 137 325t388 127q231 0 392.5 -111.5t161.5 -356.5h-187q-15 118 -64 181q-91 115 -309 115q-176 0 -253 -74 t-77 -172q0 -108 90 -158q59 -32 267 -80l206 -47q149 -34 230 -93q140 -103 140 -299q0 -244 -177.5 -349t-412.5 -105q-274 0 -429 140q-155 139 -152 377h187zM688 1509zM939 1891l-267 -289h-138l183 289h222z"></glyph><glyph glyph-name="sacute" unicode="ś" d="M239 336q8 -90 45 -138q68 -87 236 -87q100 0 176 43.5t76 134.5q0 69 -61 105q-39 22 -154 51l-143 36q-137 34 -202 76q-116 73 -116 202q0 152 109.5 246t294.5 94q242 0 349 -142q67 -90 65 -194h-170q-5 61 -43 111q-62 71 -215 71q-102 0 -154.5 -39t-52.5 -103 q0 -70 69 -112q40 -25 118 -44l119 -29q194 -47 260 -91q105 -69 105 -217q0 -143 -108.5 -247t-330.5 -104q-239 0 -338.5 108.5t-106.5 268.5h173zM505 1097zM780 1521l-267 -289h-138l183 289h222z"></glyph><glyph glyph-name="Scircumflex" unicode="Ŝ" d="M286 474q7 -125 59 -203q99 -146 349 -146q112 0 204 32q178 62 178 222q0 120 -75 171q-76 50 -238 87l-199 45q-195 44 -276 97q-140 92 -140 275q0 198 137 325t388 127q231 0 392.5 -111.5t161.5 -356.5h-187q-15 118 -64 181q-91 115 -309 115q-176 0 -253 -74 t-77 -172q0 -108 90 -158q59 -32 267 -80l206 -47q149 -34 230 -93q140 -103 140 -299q0 -244 -177.5 -349t-412.5 -105q-274 0 -429 140q-155 139 -152 377h187zM688 1509zM773 1891l204 -289h-164l-135 192l-135 -192h-163l203 289h190z"></glyph><glyph glyph-name="scircumflex" unicode="ŝ" d="M239 336q8 -90 45 -138q68 -87 236 -87q100 0 176 43.5t76 134.5q0 69 -61 105q-39 22 -154 51l-143 36q-137 34 -202 76q-116 73 -116 202q0 152 109.5 246t294.5 94q242 0 349 -142q67 -90 65 -194h-170q-5 61 -43 111q-62 71 -215 71q-102 0 -154.5 -39t-52.5 -103 q0 -70 69 -112q40 -25 118 -44l119 -29q194 -47 260 -91q105 -69 105 -217q0 -143 -108.5 -247t-330.5 -104q-239 0 -338.5 108.5t-106.5 268.5h173zM505 1097zM613 1491l204 -289h-164l-135 192l-135 -192h-163l203 289h190z"></glyph><glyph glyph-name="Scedilla" unicode="Ş" d="M286 474q7 -125 59 -203q99 -146 349 -146q112 0 204 32q178 62 178 222q0 120 -75.5 170.5t-237.5 87.5l-199 45q-195 44 -276 97q-140 92 -140 275q0 198 137 325t388 127q231 0 392.5 -111.5t161.5 -356.5h-187q-15 118 -64 181q-91 115 -309 115q-176 0 -253 -74 t-77 -172q0 -108 90 -158q59 -32 267 -80l206 -47q149 -34 230 -93q140 -103 140 -299q0 -244 -177.5 -349t-384.5 -105l-61 -85q29 9 75 9q70 0 115.5 -40.5t45.5 -115.5q0 -76 -60 -131t-184 -55q-53 0 -110 15q-32 8 -86 28l35 81q38 -14 59 -20q41 -11 74 -11 q37 0 64 11q52 21 52 76q0 32 -26.5 55.5t-70.5 23.5q-22 0 -39.5 -4t-41.5 -13l-35 41l99 135q-207 0 -362 139.5t-152 377.5h187z"></glyph><glyph glyph-name="scedilla" unicode="ş" d="M239 336q8 -90 45 -138q68 -87 236 -87q100 0 176 43.5t76 134.5q0 69 -61 105q-39 22 -154 51l-143 36q-137 34 -202 76q-116 73 -116 202q0 152 109.5 246t294.5 94q242 0 349 -142q67 -90 65 -194h-170q-5 61 -43 111q-62 71 -215 71q-102 0 -154.5 -39t-52.5 -103 q0 -70 69 -112q40 -25 118 -44l119 -29q194 -47 260 -91q105 -69 105 -217q0 -143 -108.5 -247t-301.5 -104l-64 -87q29 9 75 9q70 0 115.5 -40.5t45.5 -115.5q0 -76 -60 -131t-184 -55q-53 0 -110 15q-32 8 -86 28l35 81q38 -14 59 -20q41 -11 74 -11q37 0 64 11 q52 21 52 76q0 32 -26.5 55.5t-70.5 23.5q-22 0 -39.5 -4t-41.5 -13l-35 41l100 137q-171 0 -270.5 108.5t-106.5 268.5h173z"></glyph><glyph glyph-name="Scaron" unicode="Š" d="M286 474q7 -125 59 -203q99 -146 349 -146q112 0 204 32q178 62 178 222q0 120 -75 171q-76 50 -238 87l-199 45q-195 44 -276 97q-140 92 -140 275q0 198 137 325t388 127q231 0 392.5 -111.5t161.5 -356.5h-187q-15 118 -64 181q-91 115 -309 115q-176 0 -253 -74 t-77 -172q0 -108 90 -158q59 -32 267 -80l206 -47q149 -34 230 -93q140 -103 140 -299q0 -244 -177.5 -349t-412.5 -105q-274 0 -429 140q-155 139 -152 377h187zM688 1509zM797 1625h-190l-203 289h163l135 -192l135 192h164z"></glyph><glyph glyph-name="scaron" unicode="š" d="M239 336q8 -90 45 -138q68 -87 236 -87q100 0 176 43.5t76 134.5q0 69 -61 105q-39 22 -154 51l-143 36q-137 34 -202 76q-116 73 -116 202q0 152 109.5 246t294.5 94q242 0 349 -142q67 -90 65 -194h-170q-5 61 -43 111q-62 71 -215 71q-102 0 -154.5 -39t-52.5 -103 q0 -70 69 -112q40 -25 118 -44l119 -29q194 -47 260 -91q105 -69 105 -217q0 -143 -108.5 -247t-330.5 -104q-239 0 -338.5 108.5t-106.5 268.5h173zM505 1097zM614 1213h-190l-203 289h163l135 -192l135 192h164z"></glyph><glyph glyph-name="Tcedilla" unicode="Ţ" d="M1225 1469v-175h-495v-1294h-202v1294h-495v175h1192zM624 0h97l-94 -128q29 9 75 9q70 0 115.5 -40.5t45.5 -115.5q0 -76 -60 -131t-184 -55q-53 0 -110 15q-32 8 -86 28l35 81q38 -14 59 -20q41 -11 74 -11q37 0 64 11q52 21 52 76q0 32 -26.5 55.5t-70.5 23.5 q-22 0 -39.5 -4t-41.5 -13l-35 41z"></glyph><glyph glyph-name="tcedilla" unicode="ţ" d="M168 1370h182v-299h171v-147h-171v-699q0 -56 38 -75q21 -11 70 -11q13 0 28 0.5t35 2.5v-142q-31 -9 -64.5 -13t-72.5 -4q-126 0 -171 64.5t-45 167.5v709h-145v147h145v299zM377 -5h97l-94 -128q29 9 75 9q70 0 115.5 -40.5t45.5 -115.5q0 -76 -60 -131t-184 -55 q-53 0 -110 15q-32 8 -86 28l35 81q38 -14 59 -20q41 -11 74 -11q37 0 64 11q52 21 52 76q0 32 -26.5 55.5t-70.5 23.5q-22 0 -39.5 -4t-41.5 -13l-35 41z"></glyph><glyph glyph-name="Tcaron" unicode="Ť" d="M1225 1469v-175h-495v-1294h-202v1294h-495v175h1192zM730 1578h-190l-203 289h163l135 -192l135 192h164z"></glyph><glyph glyph-name="tcaron" unicode="ť" d="M525 1242q69 12 97 97q15 45 15 87q0 7 -0.5 12.5t-2.5 12.5h-109v218h214v-202q0 -119 -48 -209t-166 -111v95zM168 1370h182v-299h171v-147h-171v-699q0 -56 38 -75q21 -11 70 -11q13 0 28 0.5t35 2.5v-142q-31 -9 -64.5 -13t-72.5 -4q-126 0 -171 64.5t-45 167.5v709 h-145v147h145v299z"></glyph><glyph glyph-name="Tbar" unicode="Ŧ" d="M1225 1469v-175h-495v-1294h-202v1294h-495v175h1192zM325 805h640v-118h-640v118z"></glyph><glyph glyph-name="tbar" unicode="ŧ" d="M168 1370h182v-299h171v-147h-171v-699q0 -56 38 -75q21 -11 70 -11q13 0 28 0.5t35 2.5v-142q-31 -9 -64.5 -13t-72.5 -4q-126 0 -171 64.5t-45 167.5v709h-145v147h145v299zM-30 747h640v-118h-640v118z"></glyph><glyph glyph-name="Utilde" unicode="Ũ" d="M372 1469v-908q0 -160 60 -266q89 -160 300 -160q253 0 344 173q49 94 49 253v908h202v-825q0 -271 -73 -417q-134 -266 -506 -266t-505 266q-73 146 -73 417v825h202zM749 1469zM801 1756q28 -12 51 -19t47 -7q56 0 80 35q13 19 18 57h105q-21 -127 -80.5 -175 t-130.5 -48q-22 0 -56 8t-60 18l-53 19q-47 17 -76.5 25.5t-57.5 8.5q-35 0 -57.5 -23t-30.5 -70h-98q13 79 43 129q57 92 169 92q34 0 75.5 -10t111.5 -40z"></glyph><glyph glyph-name="utilde" unicode="ũ" d="M312 1071v-711q0 -82 26 -134q48 -96 179 -96q188 0 256 168q37 90 37 247v526h180v-1071h-170l2 158q-35 -61 -87 -103q-103 -84 -250 -84q-229 0 -312 153q-45 82 -45 219v728h184zM559 1097zM586 1382q28 -12 51 -19t47 -7q56 0 80 35q13 19 18 57h105 q-21 -127 -80.5 -175t-130.5 -48q-22 0 -56 8t-60 18l-53 19q-47 17 -76.5 25.5t-57.5 8.5q-35 0 -57.5 -23t-30.5 -70h-98q13 79 43 129q57 92 169 92q34 0 75.5 -10t111.5 -40z"></glyph><glyph glyph-name="Umacron" unicode="Ū" d="M372 1469v-908q0 -160 60 -266q89 -160 300 -160q253 0 344 173q49 94 49 253v908h202v-825q0 -271 -73 -417q-134 -266 -506 -266t-505 266q-73 146 -73 417v825h202zM749 1469zM444 1689h640v-118h-640v118z"></glyph><glyph glyph-name="umacron" unicode="ū" d="M312 1071v-711q0 -82 26 -134q48 -96 179 -96q188 0 256 168q37 90 37 247v526h180v-1071h-170l2 158q-35 -61 -87 -103q-103 -84 -250 -84q-229 0 -312 153q-45 82 -45 219v728h184zM559 1097zM236 1329h640v-118h-640v118z"></glyph><glyph glyph-name="Ubreve" unicode="Ŭ" d="M538 1817q16 -65 47 -98q56 -59 174 -59q109 0 163 59q31 34 47 98h99q-20 -147 -103.5 -212t-225.5 -65q-177 0 -254 119q-40 62 -49 158h102zM372 1469v-908q0 -160 60 -266q89 -160 300 -160q253 0 344 173q49 94 49 253v908h202v-825q0 -271 -73 -417 q-134 -266 -506 -266t-505 266q-73 146 -73 417v825h202z"></glyph><glyph glyph-name="ubreve" unicode="ŭ" d="M361 1454q16 -65 47 -98q56 -59 174 -59q109 0 163 59q31 34 47 98h99q-20 -147 -103.5 -212t-225.5 -65q-177 0 -254 119q-40 62 -49 158h102zM312 1071v-711q0 -82 26 -134q48 -96 179 -96q188 0 256 168q37 90 37 247v526h180v-1071h-170l2 158q-35 -61 -87 -103 q-103 -84 -250 -84q-229 0 -312 153q-45 82 -45 219v728h184z"></glyph><glyph glyph-name="Uring" unicode="Ů" d="M372 1469v-908q0 -160 60 -266q89 -160 300 -160q253 0 344 173q49 94 49 253v908h202v-825q0 -271 -73 -417q-134 -266 -506 -266t-505 266q-73 146 -73 417v825h202zM749 1469zM773 1618q52 0 89 37t37 89t-37 89t-89 37q-51 0 -88 -37t-37 -89t37 -89t88 -37z M773 1953q86 0 147.5 -61.5t61.5 -147.5t-61.5 -147.5t-147.5 -61.5t-147 61.5t-61 147.5t61 147.5t147 61.5z"></glyph><glyph glyph-name="uring" unicode="ů" d="M312 1071v-711q0 -82 26 -134q48 -96 179 -96q188 0 256 168q37 90 37 247v526h180v-1071h-170l2 158q-35 -61 -87 -103q-103 -84 -250 -84q-229 0 -312 153q-45 82 -45 219v728h184zM559 1097zM573 1189q52 0 89 37t37 89t-37 89t-89 37q-51 0 -88 -37t-37 -89t37 -89 t88 -37zM573 1524q86 0 147.5 -61.5t61.5 -147.5t-61.5 -147.5t-147.5 -61.5t-147 61.5t-61 147.5t61 147.5t147 61.5z"></glyph><glyph glyph-name="Uhungarumlaut" unicode="Ű" d="M372 1469v-908q0 -160 60 -266q89 -160 300 -160q253 0 344 173q49 94 49 253v908h202v-825q0 -271 -73 -417q-134 -266 -506 -266t-505 266q-73 146 -73 417v825h202zM749 1469zM931 1862h214l-224 -291h-127zM598 1862h216l-227 -291h-126z"></glyph><glyph glyph-name="uhungarumlaut" unicode="ű" d="M312 1071v-711q0 -82 26 -134q48 -96 179 -96q188 0 256 168q37 90 37 247v526h180v-1071h-170l2 158q-35 -61 -87 -103q-103 -84 -250 -84q-229 0 -312 153q-45 82 -45 219v728h184zM559 1097zM745 1506h214l-224 -291h-127zM412 1506h216l-227 -291h-126z"></glyph><glyph glyph-name="Uogonek" unicode="Ų" d="M372 1469v-908q0 -160 60 -266q89 -160 300 -160q253 0 344 173q49 94 49 253v908h202v-825q0 -271 -73 -417q-134 -266 -506 -266t-505 266q-73 146 -73 417v825h202zM749 1469zM830 -27l-58 -48q-74 -60 -94.5 -91.5t-20.5 -70.5q0 -37 26.5 -64t77.5 -27q27 0 44 5 t37 16v-131q-33 -14 -59 -21q-50 -13 -102 -13q-96 0 -147.5 56t-51.5 126q0 81 58 146q46 52 143 117h147z"></glyph><glyph glyph-name="uogonek" unicode="ų" d="M312 1071v-711q0 -82 26 -134q48 -96 179 -96q188 0 256 168q37 90 37 247v526h180v-1071h-170l2 158q-35 -61 -87 -103q-103 -84 -250 -84q-229 0 -312 153q-45 82 -45 219v728h184zM559 1097zM975 3l-58 -48q-74 -60 -94.5 -91.5t-20.5 -70.5q0 -37 26.5 -64t77.5 -27 q27 0 44 5t37 16v-131q-33 -14 -59 -21q-50 -13 -102 -13q-96 0 -147.5 56t-51.5 126q0 81 58 146q46 52 143 117h147z"></glyph><glyph glyph-name="Wcircumflex" unicode="Ŵ" d="M253 1469l277 -1195l332 1195h216l332 -1195l277 1195h218l-386 -1469h-209l-339 1218l-341 -1218h-209l-384 1469h216zM1076 1885l204 -289h-164l-135 192l-135 -192h-163l203 289h190z"></glyph><glyph glyph-name="wcircumflex" unicode="ŵ" d="M215 1071l206 -844l209 844h202l210 -839l219 839h180l-311 -1071h-187l-218 829l-211 -829h-187l-309 1071h197zM833 1502l204 -289h-164l-135 192l-135 -192h-163l203 289h190z"></glyph><glyph glyph-name="Ycircumflex" unicode="Ŷ" d="M42 1469h232l422 -706l422 706h233l-555 -877v-592h-199v592zM699 1469zM806 1880l204 -289h-164l-135 192l-135 -192h-163l203 289h190z"></glyph><glyph glyph-name="ycircumflex" unicode="ŷ" d="M801 1071h199q-38 -103 -169 -470q-98 -276 -164 -450q-156 -410 -220 -500t-220 -90q-38 0 -58.5 3t-50.5 11v164q47 -13 68 -16t37 -3q50 0 73.5 16.5t39.5 40.5q5 8 36 82t45 110l-396 1102h204l287 -872zM511 1097zM615 1496l204 -289h-164l-135 192l-135 -192h-163 l203 289h190z"></glyph><glyph glyph-name="Ydieresis" unicode="Ÿ" d="M42 1469h232l422 -706l422 706h233l-555 -877v-592h-199v592zM699 1469zM783 1817h187v-208h-187v208zM453 1817h187v-208h-187v208z"></glyph><glyph glyph-name="Zacute" unicode="Ź" d="M47 165l901 1129h-835v175h1091v-171l-906 -1123h906v-175h-1157v165zM659 1469zM973 1844l-267 -289h-138l183 289h222z"></glyph><glyph glyph-name="zacute" unicode="ź" d="M52 142l635 768h-588v161h830v-147l-631 -763h650v-161h-896v142zM515 1097zM811 1505l-267 -289h-138l183 289h222z"></glyph><glyph glyph-name="Zdotaccent" unicode="Ż" d="M47 165l901 1129h-835v175h1091v-171l-906 -1123h906v-175h-1157v165zM659 1469zM566 1817h187v-208h-187v208z"></glyph><glyph glyph-name="zdotaccent" unicode="ż" d="M52 142l635 768h-588v161h830v-147l-631 -763h650v-161h-896v142zM515 1097zM436 1445h187v-208h-187v208z"></glyph><glyph glyph-name="Zcaron" unicode="Ž" d="M47 165l901 1129h-835v175h1091v-171l-906 -1123h906v-175h-1157v165zM659 1469zM768 1585h-190l-203 289h163l135 -192l135 192h164z"></glyph><glyph glyph-name="zcaron" unicode="ž" d="M52 142l635 768h-588v161h830v-147l-631 -763h650v-161h-896v142zM515 1097zM624 1213h-190l-203 289h163l135 -192l135 192h164z"></glyph><glyph glyph-name="slong" unicode="ſ" d="M355 924v-924h-178v924h-149v142h149v168q4 112 39 164q63 92 243 92q17 0 35 -1t41 -3v-164q-28 2 -40.5 2.5t-23.5 0.5q-82 0 -98 -42.5t-18 -358.5z"></glyph><glyph glyph-name="bstroke" unicode="ƀ" d="M641 119q161 0 234 116t73 288q0 202 -84.5 306t-220.5 104q-122 0 -205 -97.5t-83 -300.5q0 -201 80.5 -308.5t205.5 -107.5zM471 1038q83 52 206 52q222 0 341.5 -171.5t119.5 -405.5q0 -250 -131 -400.5t-310 -150.5q-111 0 -197 44t-149 143v-149h-162v1211h-133v118 h133v145h173v-145h334v-118h-334v-278q61 75 109 105z"></glyph><glyph glyph-name="Btopbar" unicode="Ƃ" d="M175 1469h1074v-180h-875v-441h462q222 0 329 -127.5t107 -299.5q0 -200 -120 -310.5t-316 -110.5h-661v1469zM951 202q120 58 120 220q0 144 -83.5 201t-217.5 57h-396v-509h396q115 0 181 31z"></glyph><glyph glyph-name="btopbar" unicode="ƃ" d="M118 1474h30v1h781v-180h-636v-354q59 77 141 117.5t178 40.5q200 0 324.5 -137.5t124.5 -405.5q0 -254 -123 -422t-341 -168q-122 0 -206 59q-50 35 -107 112v-137h-166v1474zM877 547q0 169 -72.5 280t-213.5 111q-123 0 -215.5 -91t-92.5 -300q0 -151 38 -245 q71 -177 265 -177q146 0 218.5 116t72.5 306z"></glyph><glyph glyph-name="Oopen" unicode="Ɔ" d="M103 442h194q33 -142 131.5 -225t276.5 -83q217 0 350.5 152.5t133.5 467.5q0 258 -120.5 418.5t-359.5 160.5q-220 0 -335 -169q-61 -89 -91 -234h-194q26 232 172 389q175 189 472 189q256 0 430 -155q229 -205 229 -633q0 -325 -172 -533q-186 -226 -513 -226 q-279 0 -433 147t-171 334z"></glyph><glyph glyph-name="Dafrican" unicode="Ɖ" d="M33 865h132v604h562q365 0 531 -251q121 -183 121 -459q0 -244 -93 -436q-156 -323 -528 -323h-593v687h-132v178zM365 865h419v-178h-419v-517h355q101 0 166 21q116 39 190 150q59 89 85 228q15 83 15 154q0 273 -108.5 424t-349.5 151h-353v-433z"></glyph><glyph glyph-name="Dtopbar" unicode="Ƌ" d="M1272 0h-661q-196 0 -316 110.5t-120 310.5q0 172 107 299.5t329 127.5h462v441h-875v180h1074v-1469zM496 202q66 -31 181 -31h396v509h-396q-134 0 -217.5 -57t-83.5 -201q0 -162 120 -220z"></glyph><glyph glyph-name="dtopbar" unicode="ƌ" d="M1061 0h-166v137q-57 -77 -107 -112q-84 -59 -206 -59q-218 0 -341 168t-123 422q0 268 124.5 405.5t324.5 137.5q96 0 178 -40.5t141 -117.5v354h-636v180h781v-1h30v-1474zM302 547q0 -190 72.5 -306t218.5 -116q194 0 265 177q38 94 38 245q0 209 -92.5 300t-215.5 91 q-141 0 -213.5 -111t-72.5 -280z"></glyph><glyph glyph-name="deltaturned" unicode="ƍ" d="M73 975q0 209 138 349t362 140q217 0 355 -134t138 -337q0 -251 -118.5 -409t-370.5 -158l383 -282v-164h-783v147h572l-424 316q-133 98 -192.5 230t-59.5 302zM569 1301q-152 0 -242 -107.5t-90 -271.5q0 -209 99 -289t231 -80h32q21 4 88.5 14.5t141 120t73.5 252.5 q0 156 -92 258.5t-241 102.5z"></glyph><glyph glyph-name="Ereversed" unicode="Ǝ" d="M1261 -1h-1086v175h892v498h-811v170h811v446h-877v180h1071v-1469z"></glyph><glyph glyph-name="Schwa" unicode="Ə" d="M216 217q-73 109 -97 255q-22 100 -22 318h1120q-7 220 -134 383t-331 163q-190 0 -364 -185q-65 -73 -92 -169h-179q10 80 63.5 177.5t119.5 160.5q110 108 274 145q88 22 198 22q270 0 458 -196.5t188 -550.5q0 -348 -189 -565.5t-495 -217.5q-153 0 -297.5 72.5 t-220.5 187.5zM287 657q15 -158 69 -312q160 -236 393 -236q168 0 311 181t150 367h-923z"></glyph><glyph glyph-name="Eopen" unicode="Ɛ" d="M551 102q131 0 219 107q78 96 92 233h150q-12 -199 -127 -334q-133 -157 -354 -157q-191 0 -317 141q-122 137 -122 330q0 133 37 213q44 93 152 151q-152 127 -152 304q0 195 107 312q111 122 303 122q208 0 329 -144q115 -136 115 -348l-147 -2q0 127 -79 231 q-85 113 -208 113q-119 0 -187.5 -69t-68.5 -189q0 -158 89 -216q69 -45 235 -48v-147q-50 4 -72 4q-293 0 -293 -277q0 -145 76 -234q81 -96 223 -96z"></glyph><glyph glyph-name="Fhook" unicode="Ƒ" d="M2 -271q121 4 145.5 21.5t24.5 109.5v1206h3v403h1019v-180h-820v-446h721v-175h-721v-827q0 -117 -38 -175q-85 -98 -261 -98q-13 0 -27.5 1t-45.5 4v156z"></glyph><glyph glyph-name="florin" unicode="ƒ" d="M71 -230q24 -12 48.5 -20.5t50.5 -8.5q102 0 151 100q31 63 67 258l131 702h-226v142h254q50 236 63.5 284t48.5 117q53 85 125 124t158 39q44 0 79 -7t67 -21l-31 -162q-44 19 -67 26.5t-46 7.5q-83 0 -125.5 -79.5t-86.5 -328.5h235v-142h-261l-90 -503 q-67 -375 -131 -505q-103 -213 -320 -213q-45 0 -73 7t-52 17z"></glyph><glyph glyph-name="Iotaafrican" unicode="Ɩ" d="M412 -24q-31 -3 -45.5 -4t-27.5 -1q-176 0 -239 98q-38 58 -38 175v1225h180v-1206q0 -92 24.5 -109.5t145.5 -21.5v-156z"></glyph><glyph glyph-name="Istroke" unicode="Ɨ" d="M35 920h232v549h180v-549h228v-118h-228v-802h-180v802h-232v118z"></glyph><glyph glyph-name="lbar" unicode="ƚ" d="M35 920h232v549h180v-549h228v-118h-228v-802h-180v802h-232v118z"></glyph><glyph glyph-name="uni019B" unicode="ƛ" d="M131 1140l257 73l-5 14q-39 100 -123 96h-65v149q41 11 102 11q104 0 156 -54q49 -54 93 -171l289 82v-118l-246 -70l373 -921q15 -30 35 -57q21 -27 54 -27h51v-147h-105q-147 0 -202 152l-250 659l-309 -811h-199l420 1030l-29 76l-297 -84v118z"></glyph><glyph glyph-name="Nhookleft" unicode="Ɲ" d="M-14 -271q121 4 145.5 21.5t24.5 109.5v1609h235l742 -1190v1190h189v-1469h-223l-753 1189v-1189h-10v-159q0 -117 -38 -175q-63 -98 -239 -98q-13 0 -27.5 1t-45.5 4v156z"></glyph><glyph glyph-name="nlegrightlong" unicode="ƞ" d="M132 1071h171v-152q76 94 161 135t189 41q228 0 308 -159q44 -87 44 -249v-1084h-183v1072q0 98 -29 158q-48 100 -174 100q-64 0 -105 -13q-74 -22 -130 -88q-45 -53 -58.5 -109.5t-13.5 -161.5v-561h-180v1071z"></glyph><glyph glyph-name="Ocenteredtilde" unicode="Ɵ" d="M1366 1259q146 -195 146 -499q0 -329 -167 -547q-196 -256 -559 -256q-339 0 -533 224q-173 216 -173 546q0 298 148 510q190 272 562 272q389 0 576 -250zM409 302q124 -167 401 -167q263 0 380 188q95 152 113 340h-1016q12 -211 122 -361zM1172 1174 q-135 158 -370 158q-228 0 -372 -157q-121 -131 -140 -365h1016q-12 222 -134 364z"></glyph><glyph glyph-name="Ohorn" unicode="Ơ" d="M1512 760q0 -329 -167 -547q-196 -256 -559 -256q-339 0 -533 224q-173 216 -173 546q0 298 148 510q190 272 562 272q364 0 551 -220q29 -7 68 1q48 3 87 19l11 5q5 3 10 8l-41 100l201 84l82 -198l-187 -77q-83 -35 -161 -41q101 -177 101 -430zM1308 757 q0 259 -135.5 417t-370.5 158q-228 0 -372 -156.5t-144 -461.5q0 -244 123.5 -411.5t400.5 -167.5q263 0 380.5 188.5t117.5 433.5z"></glyph><glyph glyph-name="ohorn" unicode="ơ" d="M1057 558q0 -259 -126 -428t-391 -169q-221 0 -351 149.5t-130 401.5q0 270 137 430t368 160q207 0 350 -138q23 -22 42 -48q15 0 33 4q48 3 87 19l11 5q5 3 10 8l-41 100l201 84l82 -198l-187 -77q-73 -31 -142 -39q47 -111 47 -264zM869 553q0 150 -48 244 q-76 148 -262 148q-165 0 -240 -126t-75 -304q0 -171 75 -285t238 -114q179 0 245.5 135.5t66.5 301.5z"></glyph><glyph glyph-name="yr" unicode="Ʀ" d="M52 1469h199v-200h481q168 0 277 -49q207 -94 207 -347q0 -132 -54.5 -216t-152.5 -135q86 -35 129.5 -92t48.5 -185l7 -197q3 -84 14 -125q18 -70 64 -90v-33h-244q-10 19 -16 49t-10 116l-12 245q-7 144 -107 193q-57 27 -179 27h-453v-430h-199v1469zM711 596 q140 0 221.5 56t81.5 202q0 157 -114 214q-61 30 -163 30h-486v-502h460z"></glyph><glyph glyph-name="Tonetwo" unicode="Ƨ" d="M1267 474q3 -238 -152 -377q-155 -140 -429 -140q-235 0 -412.5 105t-177.5 349q0 196 140 299q81 59 230 93l206 47q208 48 267 80q90 50 90 158q0 98 -77 172t-253 74q-218 0 -309 -115q-49 -63 -64 -181h-187q0 245 161.5 356.5t392.5 111.5q251 0 388 -127t137 -325 q0 -183 -140 -275q-81 -53 -276 -97l-199 -45q-162 -37 -238 -87q-75 -51 -75 -171q0 -160 178 -222q92 -32 204 -32q250 0 349 146q52 78 59 203h187z"></glyph><glyph glyph-name="tonetwo" unicode="ƨ" d="M950 336q-7 -160 -106.5 -268.5t-338.5 -108.5q-222 0 -330.5 104t-108.5 247q0 148 105 217q66 44 260 91l119 29q78 19 118 44q69 42 69 112q0 64 -52.5 103t-154.5 39q-153 0 -215 -71q-38 -50 -43 -111h-170q-2 104 65 194q107 142 349 142q185 0 294.5 -94 t109.5 -246q0 -129 -116 -202q-65 -42 -202 -76l-143 -36q-115 -29 -154 -51q-61 -36 -61 -105q0 -91 76 -134.5t176 -43.5q168 0 236 87q37 48 45 138h173z"></glyph><glyph glyph-name="Esh" unicode="Ʃ" d="M57 164l596 567l-551 569v164h992v-164h-760l551 -569l-596 -567h829v-164h-1061v164z"></glyph><glyph glyph-name="Tretroflexhook" unicode="Ʈ" d="M358 -271q121 4 145.5 21.5t24.5 109.5v1434h-495v175h1192v-175h-495v-1453q0 -117 -38 -175q-85 -98 -261 -98q-13 0 -27.5 1t-45.5 4v156z"></glyph><glyph glyph-name="Uhorn" unicode="Ư" d="M372 1469v-908q0 -160 60 -266q89 -160 300 -160q253 0 344 173q49 94 49 253v908h202v-127q17 0 36 4q48 3 87 19l11 5q5 3 10 8l-41 100l201 84l82 -198l-187 -77q-103 -44 -199 -42v-601q0 -271 -73 -417q-134 -266 -506 -266t-505 266q-73 146 -73 417v825h202z"></glyph><glyph glyph-name="uhorn" unicode="ư" d="M312 1071v-711q0 -82 26 -134q48 -96 179 -96q188 0 256 168q37 90 37 247v526h180v-155q20 -1 44 4q48 3 87 19l11 5q5 3 10 8l-41 100l201 84l82 -198l-187 -77q-107 -45 -207 -41v-820h-170l2 158q-35 -61 -87 -103q-103 -84 -250 -84q-229 0 -312 153q-45 82 -45 219 v728h184z"></glyph><glyph glyph-name="Upsilonafrican" unicode="Ʊ" d="M1274 693q0 191 -102.5 372t-274.5 253v166h561v-164h-373q123 -49 248 -215t125 -412q0 -303 -177 -498.5t-511 -195.5t-511 194.5t-177 499.5q0 246 124 412t249 215h-373v164h561v-166q-172 -72 -274.5 -251t-102.5 -374q0 -225 134 -367t366 -142q237 0 372.5 141 t135.5 368z"></glyph><glyph glyph-name="uni01B5" unicode="Ƶ" d="M47 165l470 589h-218v118h312l337 422h-835v175h1091v-171l-344 -426h179v-118h-274l-467 -579h906v-175h-1157v165z"></glyph><glyph glyph-name="uni01B6" unicode="ƶ" d="M52 142l308 373h-173v118h271l229 277h-588v161h830v-147l-241 -291h139v-118h-236l-293 -354h650v-161h-896v142z"></glyph><glyph glyph-name="Ezh" unicode="Ʒ" d="M255 831l551 474h-760v164h992v-164l-360 -312q151 -27 256 -148q137 -157 137 -439q0 -230 -155 -323.5t-365 -93.5q-187 0 -337 98.5t-180 311.5h175q25 -119 120.5 -187.5t207.5 -68.5q146 0 244 50t98 211q0 160 -61 298.5t-233 138.5l-98 -10h-232z"></glyph><glyph glyph-name="Ezhreversed" unicode="Ƹ" d="M638 831l-98 10q-172 0 -233 -138.5t-61 -298.5q0 -161 98 -211t244 -50q112 0 207.5 68.5t120.5 187.5h175q-30 -213 -180 -311.5t-337 -98.5q-210 0 -365 93.5t-155 323.5q0 282 137 439q105 121 256 148l-360 312v164h992v-164h-760l551 -474h-232z"></glyph><glyph glyph-name="ezhreversed" unicode="ƹ" d="M636 428l-98 10q-172 0 -233 -138.5t-61 -298.5q0 -161 93 -221t239 -60q112 0 162.5 78.5t75.5 197.5h175q-30 -213 -135 -321.5t-292 -108.5q-210 0 -360 103.5t-150 333.5q0 282 137 439q105 121 256 148l-360 312v164h892v-164h-660l551 -474h-232z"></glyph><glyph glyph-name="twostroke" unicode="ƻ" d="M405 571l192 111q129 75 181 128q82 83 82 190q0 125 -75 198.5t-200 73.5q-185 0 -256 -140q-38 -75 -42 -208h-183q3 187 69 305q117 208 413 208q246 0 359.5 -133t113.5 -296q0 -172 -121 -294q-70 -71 -251 -172l-137 -76q-98 -54 -154 -103q-100 -87 -126 -193h782 v-170h-983q10 185 76.5 322t259.5 249zM126 635v142h980v-142h-980z"></glyph><glyph glyph-name="clickdental" unicode="ǀ" d="M353 0h-171v1490h171v-1490z"></glyph><glyph glyph-name="clicklateral" unicode="ǁ" d="M353 0h-171v1490h171v-1490zM703 0h-171v1490h171v-1490z"></glyph><glyph glyph-name="clickalveolar" unicode="ǂ" d="M1086 1002v-168h-446v-261h446v-171h-446v-402h-171v402h-426v171h426v261h-426v168h426v488h171v-488h446z"></glyph><glyph glyph-name="clickretroflex" unicode="ǃ" d="M195 1469h203v-483l-49 -636h-102l-52 636v483zM195 208h199v-208h-199v208z"></glyph><glyph glyph-name="DZcaron" unicode="Ǆ" d="M671 170q101 0 166 21q116 39 190 150q59 89 85 228q15 83 15 154q0 273 -108.5 424t-349.5 151h-353v-1128h355zM116 1469h595q303 0 470 -215q149 -194 149 -497q0 -234 -88 -423q-155 -334 -533 -334h-593v1469zM1307 170l901 1129h-835v175h1091v-171l-906 -1123h906 v-175h-1157v165zM1919 1474zM1973 1591h-190l-203 289h163l135 -192l135 192h164z"></glyph><glyph glyph-name="Dzcaron" unicode="ǅ" d="M634 170q101 0 166 21q116 39 190 150q59 89 85 228q15 83 15 154q0 273 -108.5 424t-349.5 151h-353v-1128h355zM79 1469h595q303 0 470 -215q149 -194 149 -497q0 -234 -88 -423q-155 -334 -533 -334h-593v1469zM1312 142l635 768h-588v161h830v-147l-631 -763h650 v-161h-896v142zM1775 1097zM1875 1197h-190l-203 289h163l135 -192l135 192h164z"></glyph><glyph glyph-name="dzcaron" unicode="ǆ" d="M319 235q73 -116 234 -116q125 0 205.5 107.5t80.5 308.5q0 203 -83 300.5t-205 97.5q-136 0 -220.5 -104t-84.5 -306q0 -172 73 -288zM723 1038q48 -30 109 -105v541h173v-1474h-162v149q-63 -99 -149 -143t-197 -44q-179 0 -310 150.5t-131 400.5q0 234 119.5 405.5 t341.5 171.5q123 0 206 -52zM1084 142l635 768h-588v161h830v-147l-631 -763h650v-161h-896v142zM1547 1097zM1668 1191h-190l-203 289h163l135 -192l135 192h164z"></glyph><glyph glyph-name="LJ" unicode="Ǉ" d="M107 1469h199v-1294h744v-175h-943v1469zM1957 438q0 -186 -55 -289q-102 -188 -388 -188q-165 0 -282 89.5t-117 318.5v105h187v-105q0 -120 53.5 -180.5t166.5 -60.5q159 0 208 109q30 67 30 253v979h197v-1031z"></glyph><glyph glyph-name="Lj" unicode="ǈ" d="M113 1469h199v-1294h744v-175h-943v1469zM1398 1261h-180v208h180v-208zM1048 -271q121 4 145.5 21.5t24.5 109.5v1206h180v-1225q0 -117 -38 -175q-63 -98 -239 -98q-13 0 -27.5 1t-45.5 4v156z"></glyph><glyph glyph-name="lj" unicode="ǉ" d="M88 1469h180v-1469h-180v1469zM708 1261h-180v208h180v-208zM358 -271q121 4 145.5 21.5t24.5 109.5v1206h180v-1225q0 -117 -38 -175q-63 -98 -239 -98q-13 0 -27.5 1t-45.5 4v156z"></glyph><glyph glyph-name="NJ" unicode="Ǌ" d="M113 1469h235l742 -1190v1190h189v-1469h-223l-753 1189v-1189h-190v1469zM683 1469zM2190 465q0 -186 -55 -289q-102 -188 -388 -188q-165 0 -282 89.5t-117 318.5v105h187v-105q0 -120 53.5 -180.5t166.5 -60.5q159 0 208 109q30 67 30 253v979h197v-1031z"></glyph><glyph glyph-name="Nj" unicode="ǋ" d="M107 1469h235l742 -1190v1190h189v-1469h-223l-753 1189v-1189h-190v1469zM677 1469zM1732 1261h-180v208h180v-208zM1382 -271q121 4 145.5 21.5t24.5 109.5v1206h180v-1225q0 -117 -38 -175q-63 -98 -239 -98q-13 0 -27.5 1t-45.5 4v156z"></glyph><glyph glyph-name="nj" unicode="ǌ" d="M83 1071h171v-152q76 94 161 135t189 41q228 0 308 -159q44 -87 44 -249v-687h-183v675q0 98 -29 158q-48 100 -174 100q-64 0 -105 -13q-74 -22 -130 -88q-45 -53 -58.5 -109.5t-13.5 -161.5v-561h-180v1071zM506 1097zM1392 1261h-180v208h180v-208zM1042 -271 q121 4 145.5 21.5t24.5 109.5v1206h180v-1225q0 -117 -38 -175q-63 -98 -239 -98q-13 0 -27.5 1t-45.5 4v156z"></glyph><glyph glyph-name="Acaron" unicode="Ǎ" d="M910 602l-223 649l-237 -649h460zM583 1469h225l533 -1469h-218l-149 440h-581l-159 -440h-204zM686 1469zM821 1580h-190l-203 289h163l135 -192l135 192h164z"></glyph><glyph glyph-name="acaron" unicode="ǎ" d="M327 162q57 -45 135 -45q95 0 184 44q150 73 150 239v145q-33 -21 -85 -35t-102 -20l-109 -14q-98 -13 -147 -41q-83 -47 -83 -150q0 -78 57 -123zM706 649q62 8 83 52q12 24 12 69q0 92 -65.5 133.5t-187.5 41.5q-141 0 -200 -76q-33 -42 -43 -125h-168 q5 198 128.5 275.5t286.5 77.5q189 0 307 -72q117 -72 117 -224v-617q0 -28 11.5 -45t48.5 -17q12 0 27 1.5t32 4.5v-133q-42 -12 -64 -15t-60 -3q-93 0 -135 66q-22 35 -31 99q-55 -72 -158 -125t-227 -53q-149 0 -243.5 90.5t-94.5 226.5q0 149 93 231t244 101zM557 1097z M692 1181h-190l-203 289h163l135 -192l135 192h164z"></glyph><glyph glyph-name="Icaron" unicode="Ǐ" d="M201 1469h201v-1469h-201v1469zM423 1586h-190l-203 289h163l135 -192l135 192h164z"></glyph><glyph glyph-name="icaron" unicode="ǐ" d="M189 1066h183v-1066h-183v1066zM281 1097zM392 1202h-190l-203 289h163l135 -192l135 192h164z"></glyph><glyph glyph-name="Ocaron" unicode="Ǒ" d="M1366 1259q146 -195 146 -499q0 -329 -167 -547q-196 -256 -559 -256q-339 0 -533 224q-173 216 -173 546q0 298 148 510q190 272 562 272q389 0 576 -250zM1190.5 323.5q117.5 188.5 117.5 433.5q0 259 -135.5 417t-370.5 158q-228 0 -372 -156.5t-144 -461.5 q0 -244 123.5 -411.5t400.5 -167.5q263 0 380.5 188.5zM796 1509zM916 1614h-190l-203 289h163l135 -192l135 192h164z"></glyph><glyph glyph-name="ocaron" unicode="ǒ" d="M802.5 251.5q66.5 135.5 66.5 301.5q0 150 -48 244q-76 148 -262 148q-165 0 -240 -126t-75 -304q0 -171 75 -285t238 -114q179 0 245.5 135.5zM914 964q143 -138 143 -406q0 -259 -126 -428t-391 -169q-221 0 -351 149.5t-130 401.5q0 270 137 430t368 160 q207 0 350 -138zM558 1097zM689 1201h-190l-203 289h163l135 -192l135 192h164z"></glyph><glyph glyph-name="Ucaron" unicode="Ǔ" d="M372 1469v-908q0 -160 60 -266q89 -160 300 -160q253 0 344 173q49 94 49 253v908h202v-825q0 -271 -73 -417q-134 -266 -506 -266t-505 266q-73 146 -73 417v825h202zM749 1469zM879 1549h-190l-203 289h163l135 -192l135 192h164z"></glyph><glyph glyph-name="ucaron" unicode="ǔ" d="M312 1071v-711q0 -82 26 -134q48 -96 179 -96q188 0 256 168q37 90 37 247v526h180v-1071h-170l2 158q-35 -61 -87 -103q-103 -84 -250 -84q-229 0 -312 153q-45 82 -45 219v728h184zM559 1097zM690 1170h-190l-203 289h163l135 -192l135 192h164z"></glyph><glyph glyph-name="Udieresismacron" unicode="Ǖ" d="M372 1469v-908q0 -160 60 -266q89 -160 300 -160q253 0 344 173q49 94 49 253v908h202v-825q0 -271 -73 -417q-134 -266 -506 -266t-505 266q-73 146 -73 417v825h202zM749 1469zM844 1769h187v-208h-187v208zM514 1769h187v-208h-187v208zM444 2005h640v-118h-640v118z "></glyph><glyph glyph-name="udieresismacron" unicode="ǖ" d="M312 1071v-711q0 -82 26 -134q48 -96 179 -96q188 0 256 168q37 90 37 247v526h180v-1071h-170l2 158q-35 -61 -87 -103q-103 -84 -250 -84q-229 0 -312 153q-45 82 -45 219v728h184zM559 1097zM654 1365h187v-208h-187v208zM324 1365h187v-208h-187v208zM276 1595h640 v-118h-640v118z"></glyph><glyph glyph-name="Udieresisacute" unicode="Ǘ" d="M372 1469v-908q0 -160 60 -266q89 -160 300 -160q253 0 344 173q49 94 49 253v908h202v-825q0 -271 -73 -417q-134 -266 -506 -266t-505 266q-73 146 -73 417v825h202zM749 1469zM844 1747h187v-208h-187v208zM514 1747h187v-208h-187v208zM1058 2119l-267 -289h-138 l183 289h222z"></glyph><glyph glyph-name="udieresisacute" unicode="ǘ" d="M312 1071v-711q0 -82 26 -134q48 -96 179 -96q188 0 256 168q37 90 37 247v526h180v-1071h-170l2 158q-35 -61 -87 -103q-103 -84 -250 -84q-229 0 -312 153q-45 82 -45 219v728h184zM559 1097zM631 1370h187v-208h-187v208zM301 1370h187v-208h-187v208zM855 1752 l-267 -289h-138l183 289h222z"></glyph><glyph glyph-name="Udieresiscaron" unicode="Ǚ" d="M372 1469v-908q0 -160 60 -266q89 -160 300 -160q253 0 344 173q49 94 49 253v908h202v-825q0 -271 -73 -417q-134 -266 -506 -266t-505 266q-73 146 -73 417v825h202zM749 1469zM820 1742h187v-208h-187v208zM490 1742h187v-208h-187v208zM850 1814h-190l-203 289h163 l135 -192l135 192h164z"></glyph><glyph glyph-name="udieresiscaron" unicode="ǚ" d="M312 1071v-711q0 -82 26 -134q48 -96 179 -96q188 0 256 168q37 90 37 247v526h180v-1071h-170l2 158q-35 -61 -87 -103q-103 -84 -250 -84q-229 0 -312 153q-45 82 -45 219v728h184zM559 1097zM634 1337h187v-208h-187v208zM304 1337h187v-208h-187v208zM659 1412h-190 l-203 289h163l135 -192l135 192h164z"></glyph><glyph glyph-name="Udieresisgrave" unicode="Ǜ" d="M372 1469v-908q0 -160 60 -266q89 -160 300 -160q253 0 344 173q49 94 49 253v908h202v-825q0 -271 -73 -417q-134 -266 -506 -266t-505 266q-73 146 -73 417v825h202zM749 1469zM809 1721h187v-208h-187v208zM479 1721h187v-208h-187v208zM830 1779h-137l-268 289h223z "></glyph><glyph glyph-name="udieresisgrave" unicode="ǜ" d="M312 1071v-711q0 -82 26 -134q48 -96 179 -96q188 0 256 168q37 90 37 247v526h180v-1071h-170l2 158q-35 -61 -87 -103q-103 -84 -250 -84q-229 0 -312 153q-45 82 -45 219v728h184zM559 1097zM632 1342h187v-208h-187v208zM302 1342h187v-208h-187v208zM658 1406h-137 l-268 289h223z"></glyph><glyph glyph-name="eturned" unicode="ǝ" d="M160 153q-54 81 -72 189q-16 74 -16 236h785q-5 163 -77 261.5t-223 98.5q-141 0 -225 -93q-48 -54 -68 -125h-177q7 59 46.5 131.5t88.5 118.5q82 80 203 108q65 16 147 16q200 0 339 -145.5t139 -407.5q0 -258 -140 -419t-366 -161q-114 0 -221 53.5t-163 138.5z M257 435q11 -117 51 -187q74 -130 247 -130q124 0 208 89.5t89 227.5h-595z"></glyph><glyph glyph-name="Adieresismacron" unicode="Ǟ" d="M910 602l-223 649l-237 -649h460zM583 1469h225l533 -1469h-218l-149 440h-581l-159 -440h-204zM686 1469zM772 1762h187v-208h-187v208zM442 1762h187v-208h-187v208zM369 1952h640v-118h-640v118z"></glyph><glyph glyph-name="adieresismacron" unicode="ǟ" d="M327 162q57 -45 135 -45q95 0 184 44q150 73 150 239v145q-33 -21 -85 -35t-102 -20l-109 -14q-98 -13 -147 -41q-83 -47 -83 -150q0 -78 57 -123zM706 649q62 8 83 52q12 24 12 69q0 92 -65.5 133.5t-187.5 41.5q-141 0 -200 -76q-33 -42 -43 -125h-168 q5 198 128.5 275.5t286.5 77.5q189 0 307 -72q117 -72 117 -224v-617q0 -28 11.5 -45t48.5 -17q12 0 27 1.5t32 4.5v-133q-42 -12 -64 -15t-60 -3q-93 0 -135 66q-22 35 -31 99q-55 -72 -158 -125t-227 -53q-149 0 -243.5 90.5t-94.5 226.5q0 149 93 231t244 101zM557 1097z M610 1422h187v-208h-187v208zM280 1422h187v-208h-187v208zM208 1649h640v-118h-640v118z"></glyph><glyph glyph-name="Adotmacron" unicode="Ǡ" d="M910 602l-223 649l-237 -649h460zM583 1469h225l533 -1469h-218l-149 440h-581l-159 -440h-204zM686 1469zM597 1759h187v-208h-187v208zM362 1952h640v-118h-640v118z"></glyph><glyph glyph-name="adotmacron" unicode="ǡ" d="M327 162q57 -45 135 -45q95 0 184 44q150 73 150 239v145q-33 -21 -85 -35t-102 -20l-109 -14q-98 -13 -147 -41q-83 -47 -83 -150q0 -78 57 -123zM706 649q62 8 83 52q12 24 12 69q0 92 -65.5 133.5t-187.5 41.5q-141 0 -200 -76q-33 -42 -43 -125h-168 q5 198 128.5 275.5t286.5 77.5q189 0 307 -72q117 -72 117 -224v-617q0 -28 11.5 -45t48.5 -17q12 0 27 1.5t32 4.5v-133q-42 -12 -64 -15t-60 -3q-93 0 -135 66q-22 35 -31 99q-55 -72 -158 -125t-227 -53q-149 0 -243.5 90.5t-94.5 226.5q0 149 93 231t244 101zM557 1097z M450 1444h187v-208h-187v208zM220 1654h640v-118h-640v118z"></glyph><glyph glyph-name="AEmacron" unicode="Ǣ" d="M737 1298l-273 -694h472v694h-199zM613 1469h1316v-175h-796v-451h730v-166h-730v-502h815v-175h-1012v436h-541l-163 -436h-216zM894 1714h640v-118h-640v118z"></glyph><glyph glyph-name="aemacron" unicode="ǣ" d="M1543 621q-3 157 -86.5 237.5t-203.5 80.5t-207 -80.5t-96 -237.5h593zM782 545q-25 -17 -49 -26.5t-85 -19.5l-153 -23q-111 -18 -159 -45q-79 -46 -79 -144q0 -84 63.5 -129t149.5 -45q49 0 114 25t120 77q49 46 64 94q9 30 14 101v135zM685 649q51 7 76 36t25 82 q0 86 -56 131t-179 45q-100 0 -160 -32q-100 -59 -100 -170h-173q10 226 177 309q96 47 264 47q133 0 228 -49q80 -43 122 -112q59 77 147.5 119t199.5 42q117 0 216 -41.5t165 -138.5q59 -80 78.5 -184.5t19.5 -254.5h-787q5 -166 82 -263t216 -97q130 0 198 57t94 161h182 q-9 -80 -67 -164.5t-122 -126.5q-70 -46 -142.5 -63.5t-149.5 -17.5q-147 0 -260 76q-104 77 -133 152q-82 -121 -186.5 -174.5t-226.5 -53.5q-172 0 -266 86t-94 222q0 178 121 266q77 56 206 73zM590 1347h640v-118h-640v118z"></glyph><glyph glyph-name="Gstroke" unicode="Ǥ" d="M979 374v142h220q7 49 8 105h-460v165h645v-270h194v-142h-194v-374h-128l-48 189q-101 -111 -179 -154q-131 -74 -333 -74q-261 0 -449 169q-205 212 -205 582q0 369 200 587q190 208 492 208q207 0 358 -80q219 -115 268 -403h-197q-36 161 -149 234.5t-285 73.5 q-204 0 -343.5 -153t-139.5 -456q0 -262 115 -426.5t375 -164.5q199 0 329 115q57 50 89 127h-183z"></glyph><glyph glyph-name="gstroke" unicode="ǥ" d="M720 1028q51 -35 104 -102v135h166v-445h205v-142h-205v-387q0 -204 -60 -322q-112 -218 -423 -218q-173 0 -291 77.5t-132 242.5h183q13 -72 52 -111q61 -60 192 -60q207 0 271 146q38 86 35 307q-54 -82 -130 -122t-201 -40q-174 0 -304.5 123.5t-130.5 408.5 q0 269 131.5 420t317.5 151q126 0 220 -62zM588 474v142h232q-13 142 -78 219q-82 96 -209 96q-190 0 -260 -178q-37 -95 -37 -249q0 -181 73.5 -275.5t197.5 -94.5q194 0 273 175q32 73 41 165h-233z"></glyph><glyph glyph-name="Gcaron" unicode="Ǧ" d="M1149 1427q219 -115 268 -403h-197q-36 161 -149 234.5t-285 73.5q-204 0 -343.5 -153t-139.5 -456q0 -262 115 -426.5t375 -164.5q199 0 329.5 115.5t133.5 373.5h-460v165h645v-786h-128l-48 189q-101 -111 -179 -154q-131 -74 -333 -74q-261 0 -449 169 q-205 212 -205 582q0 369 200 587q190 208 492 208q207 0 358 -80zM758 1509zM888 1599h-190l-203 289h163l135 -192l135 192h164z"></glyph><glyph glyph-name="gcaron" unicode="ǧ" d="M730 1028q51 -35 104 -102v135h166v-974q0 -204 -60 -322q-112 -218 -423 -218q-173 0 -291 77.5t-132 242.5h183q13 -72 52 -111q61 -60 192 -60q207 0 271 146q38 86 35 307q-54 -82 -130 -122t-201 -40q-174 0 -304.5 123.5t-130.5 408.5q0 269 131.5 420t317.5 151 q126 0 220 -62zM752 835q-82 96 -209 96q-190 0 -260 -178q-37 -95 -37 -249q0 -181 73.5 -275.5t197.5 -94.5q194 0 273 175q44 99 44 231q0 199 -82 295zM531 1097zM610 1230h-190l-203 289h163l135 -192l135 192h164z"></glyph><glyph glyph-name="Kcaron" unicode="Ǩ" d="M156 1469h194v-716l716 716h275l-611 -592l628 -877h-259l-514 737l-235 -225v-512h-194v1469zM800 1557h-190l-203 289h163l135 -192l135 192h164z"></glyph><glyph glyph-name="kcaron" unicode="ǩ" d="M128 1469h173v-853l462 455h230l-410 -401l433 -670h-230l-334 540l-151 -138v-402h-173v1469zM647 1532h-190l-203 289h163l135 -192l135 192h164z"></glyph><glyph glyph-name="Oogonek" unicode="Ǫ" d="M1366 1259q146 -195 146 -499q0 -329 -167 -547q-196 -256 -559 -256q-339 0 -533 224q-173 216 -173 546q0 298 148 510q190 272 562 272q389 0 576 -250zM1190.5 323.5q117.5 188.5 117.5 433.5q0 259 -135.5 417t-370.5 158q-228 0 -372 -156.5t-144 -461.5 q0 -244 123.5 -411.5t400.5 -167.5q263 0 380.5 188.5zM796 1509zM878 -32l-58 -48q-74 -60 -94.5 -91.5t-20.5 -70.5q0 -37 26.5 -64t77.5 -27q27 0 44 5t37 16v-131q-33 -14 -59 -21q-50 -13 -102 -13q-96 0 -147.5 56t-51.5 126q0 81 58 146q46 52 143 117h147z"></glyph><glyph glyph-name="oogonek" unicode="ǫ" d="M802.5 251.5q66.5 135.5 66.5 301.5q0 150 -48 244q-76 148 -262 148q-165 0 -240 -126t-75 -304q0 -171 75 -285t238 -114q179 0 245.5 135.5zM914 964q143 -138 143 -406q0 -259 -126 -428t-391 -169q-221 0 -351 149.5t-130 401.5q0 270 137 430t368 160 q207 0 350 -138zM558 1097zM640 -28l-58 -48q-74 -60 -94.5 -91.5t-20.5 -70.5q0 -37 26.5 -64t77.5 -27q27 0 44 5t37 16v-131q-33 -14 -59 -21q-50 -13 -102 -13q-96 0 -147.5 56t-51.5 126q0 81 58 146q46 52 143 117h147z"></glyph><glyph glyph-name="Oogonekmacron" unicode="Ǭ" d="M1366 1259q146 -195 146 -499q0 -329 -167 -547q-196 -256 -559 -256q-339 0 -533 224q-173 216 -173 546q0 298 148 510q190 272 562 272q389 0 576 -250zM1190.5 323.5q117.5 188.5 117.5 433.5q0 259 -135.5 417t-370.5 158q-228 0 -372 -156.5t-144 -461.5 q0 -244 123.5 -411.5t400.5 -167.5q263 0 380.5 188.5zM796 1509zM878 -32l-58 -48q-74 -60 -94.5 -91.5t-20.5 -70.5q0 -37 26.5 -64t77.5 -27q27 0 44 5t37 16v-131q-33 -14 -59 -21q-50 -13 -102 -13q-96 0 -147.5 56t-51.5 126q0 81 58 146q46 52 143 117h147zM449 1753 h640v-118h-640v118z"></glyph><glyph glyph-name="oogonekmacron" unicode="ǭ" d="M802.5 251.5q66.5 135.5 66.5 301.5q0 150 -48 244q-76 148 -262 148q-165 0 -240 -126t-75 -304q0 -171 75 -285t238 -114q179 0 245.5 135.5zM914 964q143 -138 143 -406q0 -259 -126 -428t-391 -169q-221 0 -351 149.5t-130 401.5q0 270 137 430t368 160 q207 0 350 -138zM558 1097zM640 -28l-58 -48q-74 -60 -94.5 -91.5t-20.5 -70.5q0 -37 26.5 -64t77.5 -27q27 0 44 5t37 16v-131q-33 -14 -59 -21q-50 -13 -102 -13q-96 0 -147.5 56t-51.5 126q0 81 58 146q46 52 143 117h147zM220 1357h640v-118h-640v118z"></glyph><glyph glyph-name="Ezhcaron" unicode="Ǯ" d="M248 831l551 474h-760v164h992v-164l-360 -312q151 -27 256 -148q137 -157 137 -439q0 -230 -155 -323.5t-365 -93.5q-187 0 -337 98.5t-180 311.5h175q25 -119 120.5 -187.5t207.5 -68.5q146 0 244 50t98 211q0 160 -61 298.5t-233 138.5l-98 -10h-232zM621 1613h-190 l-203 289h163l135 -192l135 192h164z"></glyph><glyph glyph-name="ezhcaron" unicode="ǯ" d="M150 428l551 474h-660v164h892v-164l-360 -312q151 -27 256 -148q137 -157 137 -439q0 -230 -150 -333.5t-360 -103.5q-187 0 -292 108.5t-135 321.5h175q25 -119 75.5 -197.5t162.5 -78.5q146 0 239 60t93 221q0 160 -61 298.5t-233 138.5l-98 -10h-232zM583 1213h-190 l-203 289h163l135 -192l135 192h164z"></glyph><glyph glyph-name="jcaron" unicode="ǰ" d="M-38 -271q121 4 145.5 21.5t24.5 109.5v1206h180v-1225q0 -117 -38 -175q-63 -98 -239 -98q-13 0 -27.5 1t-45.5 4v156zM327 1203h-190l-203 289h163l135 -192l135 192h164z"></glyph><glyph glyph-name="DZ" unicode="Ǳ" d="M639 170q101 0 166 21q116 39 190 150q59 89 85 228q15 83 15 154q0 273 -108.5 424t-349.5 151h-353v-1128h355zM84 1469h595q303 0 470 -215q149 -194 149 -497q0 -234 -88 -423q-155 -334 -533 -334h-593v1469zM1291 170l901 1129h-835v175h1091v-171l-906 -1123h906 v-175h-1157v165zM1903 1474z"></glyph><glyph glyph-name="Dz" unicode="ǲ" d="M666 170q101 0 166 21q116 39 190 150q59 89 85 228q15 83 15 154q0 273 -108.5 424t-349.5 151h-353v-1128h355zM111 1469h595q303 0 470 -215q149 -194 149 -497q0 -234 -88 -423q-155 -334 -533 -334h-593v1469zM1344 142l635 768h-588v161h830v-147l-631 -763h650 v-161h-896v142zM1807 1097z"></glyph><glyph glyph-name="dz" unicode="ǳ" d="M319 235q73 -116 234 -116q125 0 205.5 107.5t80.5 308.5q0 203 -83 300.5t-205 97.5q-136 0 -220.5 -104t-84.5 -306q0 -172 73 -288zM723 1038q48 -30 109 -105v541h173v-1474h-162v149q-63 -99 -149 -143t-197 -44q-179 0 -310 150.5t-131 400.5q0 234 119.5 405.5 t341.5 171.5q123 0 206 -52zM1079 142l635 768h-588v161h830v-147l-631 -763h650v-161h-896v142zM1542 1097z"></glyph><glyph glyph-name="Gacute" unicode="Ǵ" d="M1149 1427q219 -115 268 -403h-197q-36 161 -149 234.5t-285 73.5q-204 0 -343.5 -153t-139.5 -456q0 -262 115 -426.5t375 -164.5q199 0 329.5 115.5t133.5 373.5h-460v165h645v-786h-128l-48 189q-101 -111 -179 -154q-131 -74 -333 -74q-261 0 -449 169 q-205 212 -205 582q0 369 200 587q190 208 492 208q207 0 358 -80zM758 1509zM1010 1887l-267 -289h-138l183 289h222z"></glyph><glyph glyph-name="gacute" unicode="ǵ" d="M730 1028q51 -35 104 -102v135h166v-974q0 -204 -60 -322q-112 -218 -423 -218q-173 0 -291 77.5t-132 242.5h183q13 -72 52 -111q61 -60 192 -60q207 0 271 146q38 86 35 307q-54 -82 -130 -122t-201 -40q-174 0 -304.5 123.5t-130.5 408.5q0 269 131.5 420t317.5 151 q126 0 220 -62zM752 835q-82 96 -209 96q-190 0 -260 -178q-37 -95 -37 -249q0 -181 73.5 -275.5t197.5 -94.5q194 0 273 175q44 99 44 231q0 199 -82 295zM531 1097zM798 1495l-267 -289h-138l183 289h222z"></glyph><glyph glyph-name="Wynn" unicode="Ƿ" d="M175 1469h661q196 0 316 -110.5t120 -310.5q0 -172 -107 -329.5t-329 -247.5l-462 -150v-321h-199v1469zM951 1267q-66 31 -181 31h-396v-809l396 150q134 50 217.5 127t83.5 281q0 162 -120 220z"></glyph><glyph glyph-name="Ngrave" unicode="Ǹ" d="M156 1469h235l742 -1190v1190h189v-1469h-223l-753 1189v-1189h-190v1469zM726 1469zM871 1532h-137l-268 289h223z"></glyph><glyph glyph-name="ngrave" unicode="ǹ" d="M132 1071h171v-152q76 94 161 135t189 41q228 0 308 -159q44 -87 44 -249v-687h-183v675q0 98 -29 158q-48 100 -174 100q-64 0 -105 -13q-74 -22 -130 -88q-45 -53 -58.5 -109.5t-13.5 -161.5v-561h-180v1071zM555 1097zM726 1211h-137l-268 289h223z"></glyph><glyph glyph-name="Aringacute" unicode="Ǻ" d="M910 602l-223 649l-237 -649h460zM583 1469h225l533 -1469h-218l-149 440h-581l-159 -440h-204zM686 1469zM697 1631q52 0 89 37t37 89t-37 89t-89 37q-51 0 -88 -37t-37 -89t37 -89t88 -37zM697 1966q86 0 147.5 -61.5t61.5 -147.5t-61.5 -147.5t-147.5 -61.5t-147 61.5 t-61 147.5t61 147.5t147 61.5zM1021 2297l-267 -289h-138l183 289h222z"></glyph><glyph glyph-name="aringacute" unicode="ǻ" d="M327 162q57 -45 135 -45q95 0 184 44q150 73 150 239v145q-33 -21 -85 -35t-102 -20l-109 -14q-98 -13 -147 -41q-83 -47 -83 -150q0 -78 57 -123zM706 649q62 8 83 52q12 24 12 69q0 92 -65.5 133.5t-187.5 41.5q-141 0 -200 -76q-33 -42 -43 -125h-168 q5 198 128.5 275.5t286.5 77.5q189 0 307 -72q117 -72 117 -224v-617q0 -28 11.5 -45t48.5 -17q12 0 27 1.5t32 4.5v-133q-42 -12 -64 -15t-60 -3q-93 0 -135 66q-22 35 -31 99q-55 -72 -158 -125t-227 -53q-149 0 -243.5 90.5t-94.5 226.5q0 149 93 231t244 101zM557 1097z M564 1232q52 0 89 37t37 89t-37 89t-89 37q-51 0 -88 -37t-37 -89t37 -89t88 -37zM564 1567q86 0 147.5 -61.5t61.5 -147.5t-61.5 -147.5t-147.5 -61.5t-147 61.5t-61 147.5t61 147.5t147 61.5zM861 1903l-267 -289h-138l183 289h222z"></glyph><glyph glyph-name="AEacute" unicode="Ǽ" d="M737 1298l-273 -694h472v694h-199zM613 1469h1316v-175h-796v-451h730v-166h-730v-502h815v-175h-1012v436h-541l-163 -436h-216zM1449 1832l-267 -289h-138l183 289h222z"></glyph><glyph glyph-name="aeacute" unicode="ǽ" d="M1543 621q-3 157 -86.5 237.5t-203.5 80.5t-207 -80.5t-96 -237.5h593zM782 545q-25 -17 -49 -26.5t-85 -19.5l-153 -23q-111 -18 -159 -45q-79 -46 -79 -144q0 -84 63.5 -129t149.5 -45q49 0 114 25t120 77q49 46 64 94q9 30 14 101v135zM685 649q51 7 76 36t25 82 q0 86 -56 131t-179 45q-100 0 -160 -32q-100 -59 -100 -170h-173q10 226 177 309q96 47 264 47q133 0 228 -49q80 -43 122 -112q59 77 147.5 119t199.5 42q117 0 216 -41.5t165 -138.5q59 -80 78.5 -184.5t19.5 -254.5h-787q5 -166 82 -263t216 -97q130 0 198 57t94 161h182 q-9 -80 -67 -164.5t-122 -126.5q-70 -46 -142.5 -63.5t-149.5 -17.5q-147 0 -260 76q-104 77 -133 152q-82 -121 -186.5 -174.5t-226.5 -53.5q-172 0 -266 86t-94 222q0 178 121 266q77 56 206 73zM1138 1500l-267 -289h-138l183 289h222z"></glyph><glyph glyph-name="Ostrokeacute" unicode="Ǿ" d="M587 172q82 -37 225 -37q268 0 399 224q97 166 97 398q0 130 -38 239q-21 59 -62 129l-770 -846q67 -70 149 -107zM132 -36l-66 62l175 180q-82 107 -121.5 240.5t-39.5 280.5q0 304 156 520q190 263 545 263q177 0 300.5 -44.5t205.5 -121.5l154 165l64 -61l-157 -173 q57 -70 104 -177q60 -147 60 -338q0 -364 -205 -586q-200 -217 -513 -217q-187 0 -324 63q-87 40 -169 117zM1030 1281q-103 51 -235 51q-225 0 -367 -157.5t-142 -460.5q0 -95 20 -191t73 -175l775 846q-67 59 -124 87zM1020 1878l-267 -289h-138l183 289h222z"></glyph><glyph glyph-name="ostrokeacute" unicode="ǿ" d="M756 915.5q-62 29.5 -138 29.5q-145 0 -232.5 -121.5t-87.5 -312.5q0 -72 15 -138q9 -37 30 -94l503 564q-28 43 -90 72.5zM494 136q57 -20 116 -20q189 0 268 178q48 107 48 246q0 90 -15 155q-8 35 -27 82l-496 -564q49 -57 106 -77zM92 4l128 135q-50 74 -77 166 t-27 218q0 227 126.5 403.5t368.5 176.5q126 0 221 -46q56 -27 128 -88l125 142l52 -50l-128 -144q63 -92 90 -211q17 -77 17 -154q0 -258 -139 -425.5t-370 -167.5q-110 0 -196 32.5t-139 88.5l-121 -128zM856 1511l-267 -289h-138l183 289h222z"></glyph><glyph glyph-name="Adblgrave" unicode="Ȁ" d="M910 602l-223 649l-237 -649h460zM583 1469h225l533 -1469h-218l-149 440h-581l-159 -440h-204zM686 1469zM592 1571h-127l-224 291h214zM925 1571h-126l-227 291h216z"></glyph><glyph glyph-name="adblgrave" unicode="ȁ" d="M327 162q57 -45 135 -45q95 0 184 44q150 73 150 239v145q-33 -21 -85 -35t-102 -20l-109 -14q-98 -13 -147 -41q-83 -47 -83 -150q0 -78 57 -123zM706 649q62 8 83 52q12 24 12 69q0 92 -65.5 133.5t-187.5 41.5q-141 0 -200 -76q-33 -42 -43 -125h-168 q5 198 128.5 275.5t286.5 77.5q189 0 307 -72q117 -72 117 -224v-617q0 -28 11.5 -45t48.5 -17q12 0 27 1.5t32 4.5v-133q-42 -12 -64 -15t-60 -3q-93 0 -135 66q-22 35 -31 99q-55 -72 -158 -125t-227 -53q-149 0 -243.5 90.5t-94.5 226.5q0 149 93 231t244 101zM557 1097z M486 1210h-127l-224 291h214zM819 1210h-126l-227 291h216z"></glyph><glyph glyph-name="Ainvertedbreve" unicode="Ȃ" d="M910 602l-223 649l-237 -649h460zM583 1469h225l533 -1469h-218l-149 440h-581l-159 -440h-204zM686 1469zM902 1512q-16 65 -47 98q-56 59 -174 59q-109 0 -163 -59q-31 -34 -47 -98h-99q20 147 103.5 212t225.5 65q177 0 254 -119q40 -62 49 -158h-102z"></glyph><glyph glyph-name="ainvertedbreve" unicode="ȃ" d="M327 162q57 -45 135 -45q95 0 184 44q150 73 150 239v145q-33 -21 -85 -35t-102 -20l-109 -14q-98 -13 -147 -41q-83 -47 -83 -150q0 -78 57 -123zM706 649q62 8 83 52q12 24 12 69q0 92 -65.5 133.5t-187.5 41.5q-141 0 -200 -76q-33 -42 -43 -125h-168 q5 198 128.5 275.5t286.5 77.5q189 0 307 -72q117 -72 117 -224v-617q0 -28 11.5 -45t48.5 -17q12 0 27 1.5t32 4.5v-133q-42 -12 -64 -15t-60 -3q-93 0 -135 66q-22 35 -31 99q-55 -72 -158 -125t-227 -53q-149 0 -243.5 90.5t-94.5 226.5q0 149 93 231t244 101zM557 1097z M761 1215q-16 65 -47 98q-56 59 -174 59q-109 0 -163 -59q-31 -34 -47 -98h-99q20 147 103.5 212t225.5 65q177 0 254 -119q40 -62 49 -158h-102z"></glyph><glyph glyph-name="Edblgrave" unicode="Ȅ" d="M175 1469h1071v-180h-877v-446h811v-170h-811v-498h892v-175h-1086v1469zM718 1469zM659 1571h-127l-224 291h214zM992 1571h-126l-227 291h216z"></glyph><glyph glyph-name="edblgrave" unicode="ȅ" d="M799 1041.5q107 -53.5 163 -138.5q54 -81 72 -189q16 -74 16 -236h-785q5 -163 77 -261.5t223 -98.5q141 0 225 93q48 54 68 125h177q-7 -59 -46.5 -131.5t-88.5 -118.5q-82 -80 -203 -108q-65 -16 -147 -16q-200 0 -339 145.5t-139 407.5q0 258 140 419t366 161 q114 0 221 -53.5zM865 621q-11 117 -51 187q-74 130 -247 130q-124 0 -208 -89.5t-89 -227.5h595zM561 1097zM502 1210h-127l-224 291h214zM835 1210h-126l-227 291h216z"></glyph><glyph glyph-name="Einvertedbreve" unicode="Ȇ" d="M175 1469h1071v-180h-877v-446h811v-170h-811v-498h892v-175h-1086v1469zM718 1469zM930 1571q-16 65 -47 98q-56 59 -174 59q-109 0 -163 -59q-31 -34 -47 -98h-99q20 147 103.5 212t225.5 65q177 0 254 -119q40 -62 49 -158h-102z"></glyph><glyph glyph-name="einvertedbreve" unicode="ȇ" d="M799 1041.5q107 -53.5 163 -138.5q54 -81 72 -189q16 -74 16 -236h-785q5 -163 77 -261.5t223 -98.5q141 0 225 93q48 54 68 125h177q-7 -59 -46.5 -131.5t-88.5 -118.5q-82 -80 -203 -108q-65 -16 -147 -16q-200 0 -339 145.5t-139 407.5q0 258 140 419t366 161 q114 0 221 -53.5zM865 621q-11 117 -51 187q-74 130 -247 130q-124 0 -208 -89.5t-89 -227.5h595zM561 1097zM802 1205q-16 65 -47 98q-56 59 -174 59q-109 0 -163 -59q-31 -34 -47 -98h-99q20 147 103.5 212t225.5 65q177 0 254 -119q40 -62 49 -158h-102z"></glyph><glyph glyph-name="Idblgrave" unicode="Ȉ" d="M201 1469h201v-1469h-201v1469zM208 1571h-127l-224 291h214zM541 1571h-126l-227 291h216z"></glyph><glyph glyph-name="idblgrave" unicode="ȉ" d="M141 1066h183v-1066h-183v1066zM233 1097zM148 1211h-127l-224 291h214zM481 1211h-126l-227 291h216z"></glyph><glyph glyph-name="Iinvertedbreve" unicode="Ȋ" d="M201 1469h201v-1469h-201v1469zM522 1571q-16 65 -47 98q-56 59 -174 59q-109 0 -163 -59q-31 -34 -47 -98h-99q20 147 103.5 212t225.5 65q177 0 254 -119q40 -62 49 -158h-102z"></glyph><glyph glyph-name="iinvertedbreve" unicode="ȋ" d="M141 1066h183v-1066h-183v1066zM233 1097zM444 1222q-16 65 -47 98q-56 59 -174 59q-109 0 -163 -59q-31 -34 -47 -98h-99q20 147 103.5 212t225.5 65q177 0 254 -119q40 -62 49 -158h-102z"></glyph><glyph glyph-name="Odblgrave" unicode="Ȍ" d="M1366 1259q146 -195 146 -499q0 -329 -167 -547q-196 -256 -559 -256q-339 0 -533 224q-173 216 -173 546q0 298 148 510q190 272 562 272q389 0 576 -250zM1190.5 323.5q117.5 188.5 117.5 433.5q0 259 -135.5 417t-370.5 158q-228 0 -372 -156.5t-144 -461.5 q0 -244 123.5 -411.5t400.5 -167.5q263 0 380.5 188.5zM796 1509zM708 1626h-127l-224 291h214zM1041 1626h-126l-227 291h216z"></glyph><glyph glyph-name="odblgrave" unicode="ȍ" d="M802.5 251.5q66.5 135.5 66.5 301.5q0 150 -48 244q-76 148 -262 148q-165 0 -240 -126t-75 -304q0 -171 75 -285t238 -114q179 0 245.5 135.5zM914 964q143 -138 143 -406q0 -259 -126 -428t-391 -169q-221 0 -351 149.5t-130 401.5q0 270 137 430t368 160 q207 0 350 -138zM558 1097zM499 1211h-127l-224 291h214zM832 1211h-126l-227 291h216z"></glyph><glyph glyph-name="Oinvertedbreve" unicode="Ȏ" d="M1366 1259q146 -195 146 -499q0 -329 -167 -547q-196 -256 -559 -256q-339 0 -533 224q-173 216 -173 546q0 298 148 510q190 272 562 272q389 0 576 -250zM1190.5 323.5q117.5 188.5 117.5 433.5q0 259 -135.5 417t-370.5 158q-228 0 -372 -156.5t-144 -461.5 q0 -244 123.5 -411.5t400.5 -167.5q263 0 380.5 188.5zM796 1509zM1008 1611q-16 65 -47 98q-56 59 -174 59q-109 0 -163 -59q-31 -34 -47 -98h-99q20 147 103.5 212t225.5 65q177 0 254 -119q40 -62 49 -158h-102z"></glyph><glyph glyph-name="oinvertedbreve" unicode="ȏ" d="M802.5 251.5q66.5 135.5 66.5 301.5q0 150 -48 244q-76 148 -262 148q-165 0 -240 -126t-75 -304q0 -171 75 -285t238 -114q179 0 245.5 135.5zM914 964q143 -138 143 -406q0 -259 -126 -428t-391 -169q-221 0 -351 149.5t-130 401.5q0 270 137 430t368 160 q207 0 350 -138zM558 1097zM770 1215q-16 65 -47 98q-56 59 -174 59q-109 0 -163 -59q-31 -34 -47 -98h-99q20 147 103.5 212t225.5 65q177 0 254 -119q40 -62 49 -158h-102z"></glyph><glyph glyph-name="Rdblgrave" unicode="Ȑ" d="M839 796q140 0 221.5 56t81.5 202q0 157 -114 214q-61 30 -163 30h-486v-502h460zM180 1469h680q168 0 277 -49q207 -94 207 -347q0 -132 -54.5 -216t-152.5 -135q86 -35 129.5 -92t48.5 -185l7 -197q3 -84 14 -125q18 -70 64 -90v-33h-244q-10 19 -16 49t-10 116 l-12 245q-7 144 -107 193q-57 27 -179 27h-453v-630h-199v1469zM663 1576h-127l-224 291h214zM996 1576h-126l-227 291h216z"></glyph><glyph glyph-name="rdblgrave" unicode="ȑ" d="M137 1071h171v-185q21 54 103 131.5t189 77.5q5 0 17 -1t41 -4v-190q-16 3 -29.5 4t-29.5 1q-136 0 -209 -87.5t-73 -201.5v-616h-180v1071zM309 1236h-127l-224 291h214zM642 1236h-126l-227 291h216z"></glyph><glyph glyph-name="Rinvertedbreve" unicode="Ȓ" d="M839 796q140 0 221.5 56t81.5 202q0 157 -114 214q-61 30 -163 30h-486v-502h460zM180 1469h680q168 0 277 -49q207 -94 207 -347q0 -132 -54.5 -216t-152.5 -135q86 -35 129.5 -92t48.5 -185l7 -197q3 -84 14 -125q18 -70 64 -90v-33h-244q-10 19 -16 49t-10 116 l-12 245q-7 144 -107 193q-57 27 -179 27h-453v-630h-199v1469zM924 1554q-16 65 -47 98q-56 59 -174 59q-109 0 -163 -59q-31 -34 -47 -98h-99q20 147 103.5 212t225.5 65q177 0 254 -119q40 -62 49 -158h-102z"></glyph><glyph glyph-name="rinvertedbreve" unicode="ȓ" d="M137 1071h171v-185q21 54 103 131.5t189 77.5q5 0 17 -1t41 -4v-190q-16 3 -29.5 4t-29.5 1q-136 0 -209 -87.5t-73 -201.5v-616h-180v1071zM609 1208q-16 65 -47 98q-56 59 -174 59q-109 0 -163 -59q-31 -34 -47 -98h-99q20 147 103.5 212t225.5 65q177 0 254 -119 q40 -62 49 -158h-102z"></glyph><glyph glyph-name="Udblgrave" unicode="Ȕ" d="M372 1469v-908q0 -160 60 -266q89 -160 300 -160q253 0 344 173q49 94 49 253v908h202v-825q0 -271 -73 -417q-134 -266 -506 -266t-505 266q-73 146 -73 417v825h202zM749 1469zM689 1571h-127l-224 291h214zM1022 1571h-126l-227 291h216z"></glyph><glyph glyph-name="udblgrave" unicode="ȕ" d="M312 1071v-711q0 -82 26 -134q48 -96 179 -96q188 0 256 168q37 90 37 247v526h180v-1071h-170l2 158q-35 -61 -87 -103q-103 -84 -250 -84q-229 0 -312 153q-45 82 -45 219v728h184zM559 1097zM500 1210h-127l-224 291h214zM833 1210h-126l-227 291h216z"></glyph><glyph glyph-name="Uinvertedbreve" unicode="Ȗ" d="M372 1469v-908q0 -160 60 -266q89 -160 300 -160q253 0 344 173q49 94 49 253v908h202v-825q0 -271 -73 -417q-134 -266 -506 -266t-505 266q-73 146 -73 417v825h202zM749 1469zM960 1571q-16 65 -47 98q-56 59 -174 59q-109 0 -163 -59q-31 -34 -47 -98h-99 q20 147 103.5 212t225.5 65q177 0 254 -119q40 -62 49 -158h-102z"></glyph><glyph glyph-name="uinvertedbreve" unicode="ȗ" d="M312 1071v-711q0 -82 26 -134q48 -96 179 -96q188 0 256 168q37 90 37 247v526h180v-1071h-170l2 158q-35 -61 -87 -103q-103 -84 -250 -84q-229 0 -312 153q-45 82 -45 219v728h184zM559 1097zM771 1210q-16 65 -47 98q-56 59 -174 59q-109 0 -163 -59q-31 -34 -47 -98 h-99q20 147 103.5 212t225.5 65q177 0 254 -119q40 -62 49 -158h-102z"></glyph><glyph glyph-name="Scommaaccent" unicode="Ș" d="M286 474q7 -125 59 -203q99 -146 349 -146q112 0 204 32q178 62 178 222q0 120 -75 171q-76 50 -238 87l-199 45q-195 44 -276 97q-140 92 -140 275q0 198 137 325t388 127q231 0 392.5 -111.5t161.5 -356.5h-187q-15 118 -64 181q-91 115 -309 115q-176 0 -253 -74 t-77 -172q0 -108 90 -158q59 -32 267 -80l206 -47q149 -34 230 -93q140 -103 140 -299q0 -244 -177.5 -349t-412.5 -105q-274 0 -429 140q-155 139 -152 377h187zM592 -519q55 9 78 77q12 36 12 70q0 6 -0.5 10t-2.5 10h-87v174h171v-161q0 -95 -38.5 -167t-132.5 -89v76z "></glyph><glyph glyph-name="scommaaccent" unicode="ș" d="M239 336q8 -90 45 -138q68 -87 236 -87q100 0 176 43.5t76 134.5q0 69 -61 105q-39 22 -154 51l-143 36q-137 34 -202 76q-116 73 -116 202q0 152 109.5 246t294.5 94q242 0 349 -142q67 -90 65 -194h-170q-5 61 -43 111q-62 71 -215 71q-102 0 -154.5 -39t-52.5 -103 q0 -70 69 -112q40 -25 118 -44l119 -29q194 -47 260 -91q105 -69 105 -217q0 -143 -108.5 -247t-330.5 -104q-239 0 -338.5 108.5t-106.5 268.5h173zM417 -517q55 9 78 77q12 36 12 70q0 6 -0.5 10t-2.5 10h-87v174h171v-161q0 -95 -38.5 -167t-132.5 -89v76z"></glyph><glyph glyph-name="Tcommaaccent" unicode="Ț" d="M1225 1469v-175h-495v-1294h-202v1294h-495v175h1192zM538 -476q55 9 78 77q12 36 12 70q0 6 -0.5 10t-2.5 10h-87v174h171v-161q0 -95 -38.5 -167t-132.5 -89v76z"></glyph><glyph glyph-name="tcommaaccent" unicode="ț" d="M168 1370h182v-299h171v-147h-171v-699q0 -56 38 -75q21 -11 70 -11q13 0 28 0.5t35 2.5v-142q-31 -9 -64.5 -13t-72.5 -4q-126 0 -171 64.5t-45 167.5v709h-145v147h145v299zM186 -493q55 10 77 78q12 35 12 69v10t-2 10h-87v174h171v-161q0 -95 -38.5 -167t-132.5 -89 v76z"></glyph><glyph glyph-name="Yogh" unicode="Ȝ" d="M686 110q176 0 276 96q94 81 94 226q0 272 -363 272q-27 0 -89 -4v162q206 3 291 48q111 48 111 196q0 120 -85 189t-233 69q-152 0 -358 -213l-137 129q250 244 508 244q238 0 375 -122q133 -117 133 -312q0 -177 -188 -304q133 -58 188 -151q46 -80 46 -213 q0 -193 -151 -330q-157 -141 -393 -141q-275 0 -539 157l142 109q209 -107 372 -107z"></glyph><glyph glyph-name="yogh" unicode="ȝ" d="M686 -317q176 0 276 96q94 81 94 226q0 272 -363 272q-27 0 -89 -4v162q206 3 291 48q111 48 111 196q0 120 -85 189t-233 69q-152 0 -358 -213l-137 129q250 244 508 244q238 0 375 -122q133 -117 133 -312q0 -177 -188 -304q133 -58 188 -151q46 -80 46 -213 q0 -193 -151 -330q-157 -141 -393 -141q-275 0 -539 157l142 109q209 -107 372 -107z"></glyph><glyph glyph-name="Hcaron" unicode="Ȟ" d="M161 1469h201v-607h764v607h201v-1469h-201v687h-764v-687h-201v1469zM853 1527h-190l-203 289h163l135 -192l135 192h164z"></glyph><glyph glyph-name="hcaron" unicode="ȟ" d="M132 1474h180v-548q64 81 115 114q87 57 217 57q233 0 316 -163q45 -89 45 -247v-687h-185v675q0 118 -30 173q-49 88 -184 88q-112 0 -203 -77t-91 -291v-568h-180v1474zM688 1537h-190l-203 289h163l135 -192l135 192h164z"></glyph><glyph glyph-name="uni0220" unicode="Ƞ" d="M170 1469h201v-70q140 109 378 109q372 0 505 -266q73 -146 73 -417v-1222h-202v1305q0 160 -60 266q-89 160 -300 160q-253 0 -344 -173q-49 -94 -49 -253v-908h-202v1469z"></glyph><glyph glyph-name="uni0226" unicode="Ȧ" d="M910 602l-223 649l-237 -649h460zM583 1469h225l533 -1469h-218l-149 440h-581l-159 -440h-204zM686 1469zM602 1778h187v-208h-187v208z"></glyph><glyph glyph-name="uni0227" unicode="ȧ" d="M327 162q57 -45 135 -45q95 0 184 44q150 73 150 239v145q-33 -21 -85 -35t-102 -20l-109 -14q-98 -13 -147 -41q-83 -47 -83 -150q0 -78 57 -123zM706 649q62 8 83 52q12 24 12 69q0 92 -65.5 133.5t-187.5 41.5q-141 0 -200 -76q-33 -42 -43 -125h-168 q5 198 128.5 275.5t286.5 77.5q189 0 307 -72q117 -72 117 -224v-617q0 -28 11.5 -45t48.5 -17q12 0 27 1.5t32 4.5v-133q-42 -12 -64 -15t-60 -3q-93 0 -135 66q-22 35 -31 99q-55 -72 -158 -125t-227 -53q-149 0 -243.5 90.5t-94.5 226.5q0 149 93 231t244 101zM557 1097z M474 1482h187v-208h-187v208z"></glyph><glyph glyph-name="uni0228" unicode="Ȩ" d="M175 1469h1071v-180h-877v-446h811v-170h-811v-498h892v-175h-1086v1469zM718 1469zM732 0h97l-94 -128q29 9 75 9q70 0 115.5 -40.5t45.5 -115.5q0 -76 -60 -131t-184 -55q-53 0 -110 15q-32 8 -86 28l35 81q38 -14 59 -20q41 -11 74 -11q37 0 64 11q52 21 52 76 q0 32 -26.5 55.5t-70.5 23.5q-22 0 -39.5 -4t-41.5 -13l-35 41z"></glyph><glyph glyph-name="uni0229" unicode="ȩ" d="M799 1041.5q107 -53.5 163 -138.5q54 -81 72 -189q16 -74 16 -236h-785q5 -163 77 -261.5t223 -98.5q141 0 225 93q48 54 68 125h177q-7 -59 -46.5 -131.5t-88.5 -118.5q-82 -80 -203 -108q-65 -16 -147 -16q-200 0 -339 145.5t-139 407.5q0 258 140 419t366 161 q114 0 221 -53.5zM865 621q-11 117 -51 187q-74 130 -247 130q-124 0 -208 -89.5t-89 -227.5h595zM561 1097zM575 -27h97l-94 -128q29 9 75 9q70 0 115.5 -40.5t45.5 -115.5q0 -76 -60 -131t-184 -55q-53 0 -110 15q-32 8 -86 28l35 81q38 -14 59 -20q41 -11 74 -11 q37 0 64 11q52 21 52 76q0 32 -26.5 55.5t-70.5 23.5q-22 0 -39.5 -4t-41.5 -13l-35 41z"></glyph><glyph glyph-name="uni022A" unicode="Ȫ" d="M1366 1259q146 -195 146 -499q0 -329 -167 -547q-196 -256 -559 -256q-339 0 -533 224q-173 216 -173 546q0 298 148 510q190 272 562 272q389 0 576 -250zM1190.5 323.5q117.5 188.5 117.5 433.5q0 259 -135.5 417t-370.5 158q-228 0 -372 -156.5t-144 -461.5 q0 -244 123.5 -411.5t400.5 -167.5q263 0 380.5 188.5zM796 1509zM868 1823h187v-208h-187v208zM538 1823h187v-208h-187v208zM492 2179h640v-118h-640v118z"></glyph><glyph glyph-name="uni022B" unicode="ȫ" d="M802.5 251.5q66.5 135.5 66.5 301.5q0 150 -48 244q-76 148 -262 148q-165 0 -240 -126t-75 -304q0 -171 75 -285t238 -114q179 0 245.5 135.5zM914 964q143 -138 143 -406q0 -259 -126 -428t-391 -169q-221 0 -351 149.5t-130 401.5q0 270 137 430t368 160 q207 0 350 -138zM558 1097zM642 1411h187v-208h-187v208zM312 1411h187v-208h-187v208zM254 1649h640v-118h-640v118z"></glyph><glyph glyph-name="uni022C" unicode="Ȭ" d="M1366 1259q146 -195 146 -499q0 -329 -167 -547q-196 -256 -559 -256q-339 0 -533 224q-173 216 -173 546q0 298 148 510q190 272 562 272q389 0 576 -250zM1190.5 323.5q117.5 188.5 117.5 433.5q0 259 -135.5 417t-370.5 158q-228 0 -372 -156.5t-144 -461.5 q0 -244 123.5 -411.5t400.5 -167.5q263 0 380.5 188.5zM796 1509zM844 1754q28 -12 51 -19t47 -7q56 0 80 35q13 19 18 57h105q-21 -127 -80.5 -175t-130.5 -48q-22 0 -56 8t-60 18l-53 19q-47 17 -76.5 25.5t-57.5 8.5q-35 0 -57.5 -23t-30.5 -70h-98q13 79 43 129 q57 92 169 92q34 0 75.5 -10t111.5 -40zM459 2020h640v-118h-640v118z"></glyph><glyph glyph-name="uni022D" unicode="ȭ" d="M802.5 251.5q66.5 135.5 66.5 301.5q0 150 -48 244q-76 148 -262 148q-165 0 -240 -126t-75 -304q0 -171 75 -285t238 -114q179 0 245.5 135.5zM914 964q143 -138 143 -406q0 -259 -126 -428t-391 -169q-221 0 -351 149.5t-130 401.5q0 270 137 430t368 160 q207 0 350 -138zM558 1097zM607 1367q28 -12 51 -19t47 -7q56 0 80 35q13 19 18 57h105q-21 -127 -80.5 -175t-130.5 -48q-22 0 -56 8t-60 18l-53 19q-47 17 -76.5 25.5t-57.5 8.5q-35 0 -57.5 -23t-30.5 -70h-98q13 79 43 129q57 92 169 92q34 0 75.5 -10t111.5 -40z M232 1638h640v-118h-640v118z"></glyph><glyph glyph-name="uni022E" unicode="Ȯ" d="M1366 1259q146 -195 146 -499q0 -329 -167 -547q-196 -256 -559 -256q-339 0 -533 224q-173 216 -173 546q0 298 148 510q190 272 562 272q389 0 576 -250zM1190.5 323.5q117.5 188.5 117.5 433.5q0 259 -135.5 417t-370.5 158q-228 0 -372 -156.5t-144 -461.5 q0 -244 123.5 -411.5t400.5 -167.5q263 0 380.5 188.5zM796 1509zM688 1864h187v-208h-187v208z"></glyph><glyph glyph-name="uni022F" unicode="ȯ" d="M802.5 251.5q66.5 135.5 66.5 301.5q0 150 -48 244q-76 148 -262 148q-165 0 -240 -126t-75 -304q0 -171 75 -285t238 -114q179 0 245.5 135.5zM914 964q143 -138 143 -406q0 -259 -126 -428t-391 -169q-221 0 -351 149.5t-130 401.5q0 270 137 430t368 160 q207 0 350 -138zM558 1097zM460 1475h187v-208h-187v208z"></glyph><glyph glyph-name="uni0230" unicode="Ȱ" d="M1366 1259q146 -195 146 -499q0 -329 -167 -547q-196 -256 -559 -256q-339 0 -533 224q-173 216 -173 546q0 298 148 510q190 272 562 272q389 0 576 -250zM1190.5 323.5q117.5 188.5 117.5 433.5q0 259 -135.5 417t-370.5 158q-228 0 -372 -156.5t-144 -461.5 q0 -244 123.5 -411.5t400.5 -167.5q263 0 380.5 188.5zM796 1509zM684 1854h187v-208h-187v208zM462 2054h640v-118h-640v118z"></glyph><glyph glyph-name="uni0231" unicode="ȱ" d="M802.5 251.5q66.5 135.5 66.5 301.5q0 150 -48 244q-76 148 -262 148q-165 0 -240 -126t-75 -304q0 -171 75 -285t238 -114q179 0 245.5 135.5zM914 964q143 -138 143 -406q0 -259 -126 -428t-391 -169q-221 0 -351 149.5t-130 401.5q0 270 137 430t368 160 q207 0 350 -138zM558 1097zM484 1407h187v-208h-187v208zM254 1595h640v-118h-640v118z"></glyph><glyph glyph-name="uni0232" unicode="Ȳ" d="M42 1469h232l422 -706l422 706h233l-555 -877v-592h-199v592zM699 1469zM392 1651h640v-118h-640v118z"></glyph><glyph glyph-name="uni0233" unicode="ȳ" d="M801 1071h199q-38 -103 -169 -470q-98 -276 -164 -450q-156 -410 -220 -500t-220 -90q-38 0 -58.5 3t-50.5 11v164q47 -13 68 -16t37 -3q50 0 73.5 16.5t39.5 40.5q5 8 36 82t45 110l-396 1102h204l287 -872zM511 1097zM206 1328h640v-118h-640v118z"></glyph><glyph glyph-name="dotlessj" unicode="ȷ" d="M-38 -271q121 4 145.5 21.5t24.5 109.5v1206h180v-1225q0 -117 -38 -175q-63 -98 -239 -98q-13 0 -27.5 1t-45.5 4v156z"></glyph><glyph glyph-name="uni0238" unicode="ȸ" d="M758 1038q48 -30 109 -105v541h180v-533q59 77 141 117.5t178 40.5q200 0 324.5 -137.5t124.5 -405.5q0 -254 -123 -422t-341 -168q-122 0 -206 59q-49 34 -105 109v-134h-168v139q-61 -91 -143 -133q-86 -44 -197 -44q-179 0 -310 150.5t-131 400.5q0 234 119.5 405.5 t341.5 171.5q123 0 206 -52zM1631 547q0 169 -72.5 280t-213.5 111q-123 0 -216 -91q-75 -75 -89 -228v-151q7 -98 35 -166q71 -177 265 -177q146 0 218.5 116t72.5 306zM588 119q125 0 205 107q69 92 79 251v116q-11 159 -81 242q-83 98 -205 98q-136 0 -220.5 -104 t-84.5 -306q0 -172 73 -288t234 -116z"></glyph><glyph glyph-name="uni0239" unicode="ȹ" d="M836 1066h7v5h171v-143q53 70 115 109q91 60 214 60q182 0 309 -139.5t127 -398.5q0 -350 -183 -500q-116 -95 -270 -95q-121 0 -203 53q-48 30 -107 103v-547h-183v550q-45 -72 -124.5 -114.5t-198.5 -42.5q-171 0 -306 134t-135 408q0 257 126.5 422t327.5 165 q133 0 224 -67q46 -33 89 -96v134zM1595 542q0 128 -37 220q-70 177 -256 177q-187 0 -256 -187q-23 -63 -32 -147v-195q9 -69 32 -123q70 -166 256 -166q126 0 209.5 105.5t83.5 315.5zM296 288q69 -167 247 -167q188 0 259 176q25 62 34 145v192q-10 82 -38 143 q-73 159 -257 159q-117 0 -200.5 -101.5t-83.5 -313.5q0 -139 39 -233z"></glyph><glyph glyph-name="uni023A" unicode="Ⱥ" d="M910 602l-223 649l-237 -649h460zM583 1469h225l533 -1469h-218l-149 440h-581l-159 -440h-204zM866 1669h152l-493 -1869h-152z"></glyph><glyph glyph-name="uni023B" unicode="Ȼ" d="M866 1679h152l-48 -192q143 -35 238 -125q154 -147 171 -334h-194q-33 142 -132 225q-51 43 -125 64l-287 -1166q61 -14 132 -14q220 0 335 169q61 89 91 234h194q-26 -232 -172 -389q-175 -189 -472 -189q-80 0 -151 15l-46 -187h-152l57 234q-74 36 -138 93 q-229 205 -229 633q0 325 172 533q186 226 513 226q25 0 49 -2zM426 1183q-133 -152 -133 -467q0 -258 120 -419q39 -52 90 -87l278 1126h-4q-217 0 -351 -153z"></glyph><glyph glyph-name="uni023C" unicode="ȼ" d="M716 1269h152l-72 -226q23 -13 43 -29q114 -88 137 -303h-175q-15 89 -62 151l-234 -738q13 -1 28 -1q112 0 177.5 68.5t90.5 187.5h175q-30 -213 -150 -311.5t-307 -98.5q-32 0 -62 4l-55 -173h-152l67 213q-76 38 -133 109q-125 154 -125 384q0 282 137 439t349 157 q61 0 115 -11zM545 941q-172 0 -246 -168q-48 -109 -48 -269q0 -161 68 -271q21 -35 50 -58l241 761q-30 5 -65 5z"></glyph><glyph glyph-name="uni023D" unicode="Ƚ" d="M-24 697v152h180v620h199v-620h322v-157l-322 1v-518h744v-175h-943v694z"></glyph><glyph glyph-name="uni023E" unicode="Ⱦ" d="M916 1679h152l-74 -210h231v-175h-293l-202 -574v-720h-202v147l-126 -357h-152l278 788v716h-495v175h809zM730 1151l50 143h-50v-143z"></glyph><glyph glyph-name="uni0241" unicode="Ɂ" d="M613 1488q197 0 315.5 -112.5t118.5 -287.5q0 -106 -43.5 -172t-175.5 -194q-96 -93 -124.5 -157.5t-28.5 -564.5h-178q0 517 34 604.5t149 200.5l80 79q36 34 58 71q40 65 40 135q0 98 -58.5 170t-193.5 72q-167 0 -231 -124q-36 -69 -41 -199h-178q0 216 122 347.5 t335 131.5z"></glyph><glyph glyph-name="uni0242" unicode="ɂ" d="M613 1102q197 0 315.5 -112.5t118.5 -287.5q0 -106 -43.5 -172t-175.5 -194q-96 -93 -124.5 -157.5t-28.5 -178.5h-178q0 131 34 218.5t149 200.5l80 79q36 34 58 71q40 65 40 135q0 98 -58.5 170t-193.5 72q-167 0 -231 -124q-36 -69 -41 -199h-178q0 216 122 347.5 t335 131.5z"></glyph><glyph glyph-name="uni0243" unicode="Ƀ" d="M48 355v142h230v972h631q258 0 367 -154q64 -91 64 -210q0 -139 -79 -228q-41 -47 -118 -86q113 -43 169 -97q99 -96 99 -265q0 -142 -89 -257q-133 -172 -423 -172h-621v355h-230zM902 170q183 0 261 106q49 67 49 162q0 160 -143 218q-76 31 -201 31h-395v-190h215 v-142h-215v-185h429zM835 848q126 0 196 35q110 55 110 198q0 144 -117 194q-66 28 -196 28h-355v-455h362z"></glyph><glyph glyph-name="uni0244" unicode="Ʉ" d="M46 755v142h249v572h202v-572h753v572h202v-572h234v-142h-234v-111q0 -271 -73 -417q-134 -266 -506 -266t-505 266q-73 146 -73 417v111h-249zM557 295q89 -160 300 -160q253 0 344 173q49 94 49 253v194h-753v-194q0 -160 60 -266z"></glyph><glyph glyph-name="uni0245" unicode="Ʌ" d="M52 0l535 1469h211l536 -1469h-223l-417 1251l-422 -1251h-220z"></glyph><glyph glyph-name="uni0246" unicode="Ɇ" d="M175 1469h639l52 210h152l-52 -210h280v-180h-324l-110 -446h368v-170h-410l-123 -498h614v-175h-657l-52 -210h-152l52 210h-277v1469zM369 843h291l110 446h-401v-446zM369 175h126l123 498h-249v-498z"></glyph><glyph glyph-name="uni0247" unicode="ɇ" d="M716 1269h152l-72 -226q1 -1 3 -2q107 -53 163 -138q54 -81 72 -189q16 -74 16 -236h-433l-113 -356q29 -4 61 -4q141 0 225 93q48 54 68 125h177q-7 -59 -46.5 -131.5t-88.5 -118.5q-82 -80 -203 -108q-65 -16 -147 -16q-49 0 -94 9l-54 -171h-152l70 221 q-59 33 -109 86q-139 146 -139 408q0 258 140 419t366 161q40 0 80 -7zM567 938q-124 0 -208 -89.5t-89 -227.5h240l100 315q-21 2 -43 2zM342 216q13 -18 29 -33l94 295h-200q5 -163 77 -262zM865 621q-11 117 -51 187q-27 47 -68 77l-84 -264h203z"></glyph><glyph glyph-name="uni0248" unicode="Ɉ" d="M877 438q0 -186 -55 -289q-102 -188 -388 -188q-165 0 -282 89.5t-117 318.5v105h187v-105q0 -120 53.5 -180.5t166.5 -60.5q159 0 208 109q30 67 30 253v434h-159v142h159v403h197v-403h151v-142h-151v-486z"></glyph><glyph glyph-name="uni0249" unicode="ɉ" d="M312 566h178v-142h-178v-583q0 -117 -38 -175q-63 -98 -239 -98q-13 0 -27.5 1t-45.5 4v156q121 4 145.5 21.5t24.5 109.5v564h-149v142h149v500h180v-500zM312 1261h-180v208h180v-208z"></glyph><glyph glyph-name="uni024A" unicode="Ɋ" d="M1702 -459q-286 0 -388 188q-55 103 -55 289v126q-189 -187 -499 -187q-363 0 -559 256q-167 218 -167 547q0 304 146 499q187 250 576 250q318 0 503 -199v159h197v-1399q0 -186 30 -253q49 -109 208 -109q2 0 3 -7t1.5 -19t1.5 -27t1 -31q1 -37 1 -83zM238 757 q0 -245 117.5 -433.5t380.5 -188.5q277 0 401 167q111 151 122 364v93q-10 271 -143 416q-144 157 -372 157q-235 0 -370.5 -158t-135.5 -417z"></glyph><glyph glyph-name="uni024B" unicode="ɋ" d="M1197 -427q-31 -3 -45.5 -4t-27.5 -1q-176 0 -239 98q-38 58 -38 175v217q-119 -97 -298 -97q-265 0 -391 169t-126 428q0 268 143 406t350 138q194 0 322 -113v77h180v-1206q0 -92 24.5 -109.5t145.5 -21.5v-156zM220 553q0 -166 66.5 -301.5t245.5 -135.5 q163 0 238 114t75 285q0 178 -75 304t-240 126q-186 0 -262 -148q-48 -94 -48 -244z"></glyph><glyph glyph-name="uni024C" unicode="Ɍ" d="M47 630v166h259v673h680q168 0 277 -49q207 -94 207 -347q0 -132 -54.5 -216t-152.5 -135q86 -35 129.5 -92t48.5 -185l7 -197q3 -84 14 -125q18 -70 64 -90v-33h-244q-10 19 -16 49t-10 116l-12 245q-7 144 -107 193q-57 27 -179 27h-453v-630h-199v630h-259zM965 796 q140 0 221.5 56t81.5 202q0 157 -114 214q-61 30 -163 30h-486v-502h460z"></glyph><glyph glyph-name="uni024D" unicode="ɍ" d="M26 355v142h216v574h171v-185q21 54 103 131.5t189 77.5q5 0 17 -1t41 -4v-190q-16 3 -29.5 4t-29.5 1q-136 0 -209 -87.5t-73 -201.5v-119h244v-142h-244v-355h-180v355h-216z"></glyph><glyph glyph-name="uni024E" unicode="Ɏ" d="M25 1055v142h293l-172 272h232l162 -272h519l163 272h233l-172 -272h272v-142h-362l-293 -463v-592h-199v592l-293 463h-383zM800 763l174 292h-349z"></glyph><glyph glyph-name="uni024F" unicode="ɏ" d="M49 655v142h198l-98 274h204l90 -274h395l91 274h199q-27 -72 -99 -274h210v-142h-261q-9 -26 -19 -54q-98 -276 -164 -450q-156 -410 -220 -500t-220 -90q-38 0 -58.5 3t-50.5 11v164q47 -13 68 -16t37 -3q50 0 73.5 16.5t39.5 40.5q5 8 36 82t45 110l-247 686h-249z M640 199l151 456h-301z"></glyph><glyph glyph-name="aturned" unicode="ɐ" d="M714 943q-95 0 -184 -44q-150 -73 -150 -239v-145q33 21 85 35t102 20l109 14q98 13 147 41q83 47 83 150q0 78 -57 123t-135 45zM470 411q-62 -8 -83 -52q-12 -24 -12 -69q0 -92 65.5 -133.5t187.5 -41.5q141 0 200 76q33 42 43 125h168q-5 -198 -128.5 -275.5 t-286.5 -77.5q-189 0 -307 72q-117 72 -117 224v617q0 28 -11.5 45t-48.5 17q-12 0 -27 -1.5t-32 -4.5v133q42 12 64 15t60 3q93 0 135 -66q22 -35 31 -99q55 72 158 125t227 53q149 0 243.5 -90.5t94.5 -226.5q0 -149 -93 -231t-244 -101z"></glyph><glyph glyph-name="ascript" unicode="ɑ" d="M881 154q-60 -86 -149 -135.5t-210 -49.5q-213 0 -339 159t-126 404q0 246 125 405t340 159q119 0 208 -49.5t149 -131.5v160h163v-837q0 -84 13.5 -92.5t97.5 -16.5v-129q-10 -6 -23.5 -8t-58.5 -2q-100 0 -139 41t-51 123zM547 942q-144 0 -230 -99.5t-86 -310.5 q0 -208 86 -308.5t230 -100.5q143 0 229 99.5t86 309.5q0 209 -86 309.5t-229 100.5z"></glyph><glyph glyph-name="ascriptturned" unicode="ɒ" d="M329 910q60 86 149 135.5t210 49.5q213 0 339 -159t126 -404q0 -246 -125 -405t-340 -159q-119 0 -208 49.5t-149 131.5v-160h-163v837q0 84 -13.5 92.5t-97.5 16.5v129q10 6 23.5 8t58.5 2q100 0 139 -41t51 -123zM663 122q144 0 230 99.5t86 310.5q0 208 -86 308.5 t-230 100.5q-143 0 -229 -99.5t-86 -309.5q0 -209 86 -309.5t229 -100.5z"></glyph><glyph glyph-name="uni0253" unicode="ɓ" d="M464 1350q-121 -4 -145.5 -21.5t-24.5 -109.5v-277q58 76 140 116.5t178 40.5q200 0 324.5 -137.5t124.5 -405.5q0 -254 -123 -422t-341 -168q-122 0 -206 59q-50 35 -107 112v-137h-166v783h-4v455q0 117 38 175q63 98 239 98q13 0 27.5 -1t45.5 -4v-156zM877 547 q0 169 -72.5 280t-213.5 111q-123 0 -215.5 -91t-92.5 -300q0 -151 38 -245q71 -177 265 -177q146 0 218.5 116t72.5 306z"></glyph><glyph glyph-name="oopen" unicode="ɔ" d="M58 359h175q16 -99 73 -164.5t183 -65.5q172 0 246 168q48 109 48 269q0 161 -68 271t-214 110q-112 0 -177.5 -68.5t-90.5 -187.5h-175q30 213 150 311.5t307 98.5q210 0 335 -153.5t125 -383.5q0 -282 -137 -439t-349 -157q-181 0 -294.5 88t-136.5 303z"></glyph><glyph glyph-name="uni0256" unicode="ɖ" d="M1172 -427q-31 -3 -45.5 -4t-27.5 -1q-176 0 -239 98q-38 58 -38 175v277q-56 -75 -128 -112q-86 -44 -197 -44q-179 0 -310 150.5t-131 400.5q0 234 119.5 405.5t341.5 171.5q123 0 206 -52q48 -30 109 -105v541h173v-1474h-3v-140q0 -92 24.5 -109.5t145.5 -21.5v-156z M553 119q125 0 205.5 107.5t80.5 308.5q0 203 -83 300.5t-205 97.5q-136 0 -220.5 -104t-84.5 -306q0 -172 73 -288t234 -116z"></glyph><glyph glyph-name="uni0257" unicode="ɗ" d="M1175 1346q-121 -4 -145.5 -21.5t-24.5 -109.5v-1215h-162v149q-63 -99 -149 -143t-197 -44q-179 0 -310 150.5t-131 400.5q0 234 119.5 405.5t341.5 171.5q123 0 206 -52q45 -29 102 -97v293q0 117 38 175q63 98 239 98q13 0 27.5 -1t45.5 -4v-156zM553 119 q125 0 205.5 107.5t80.5 308.5q0 203 -83 300.5t-205 97.5q-136 0 -220.5 -104t-84.5 -306q0 -172 73 -288t234 -116z"></glyph><glyph glyph-name="ereversed" unicode="ɘ" d="M160 903q56 85 163 138.5t221 53.5q226 0 366 -161t140 -419q0 -262 -139 -407.5t-339 -145.5q-82 0 -147 16q-121 28 -203 108q-49 46 -88.5 118.5t-46.5 131.5h177q20 -71 68 -125q84 -93 225 -93q151 0 223 98.5t77 261.5h-785q0 162 16 236q18 108 72 189zM852 621 q-5 138 -89 227.5t-208 89.5q-173 0 -247 -130q-40 -70 -51 -187h595z"></glyph><glyph glyph-name="schwa" unicode="ə" d="M160 153q-54 81 -72 189q-16 74 -16 236h785q-5 163 -77 261.5t-223 98.5q-141 0 -225 -93q-48 -54 -68 -125h-177q7 59 46.5 131.5t88.5 118.5q82 80 203 108q65 16 147 16q200 0 339 -145.5t139 -407.5q0 -258 -140 -419t-366 -161q-114 0 -221 53.5t-163 138.5z M257 435q11 -117 51 -187q74 -130 247 -130q124 0 208 89.5t89 227.5h-595z"></glyph><glyph glyph-name="schwahook" unicode="ɚ" d="M1414 496q27 -9 53 -3t48.5 21t40.5 37.5t30 46.5q12 -12 23.5 -20t22.5 -15t22.5 -15t23.5 -20q-30 -72 -88.5 -110t-143.5 -44q-57 -6 -100.5 10.5t-73.5 50.5t-45 83.5t-15 109.5q-42 -9 -85 -24q-33 -11 -67 -22q32 -198 -45 -356q-94 -192 -312 -250 q-110 -30 -227 -6t-193 92q-74 64 -119 164q-34 67 -76 224l758 203q-47 156 -142 232.5t-241 37.5q-136 -37 -193 -148q-33 -65 -34 -138l-171 -46q-8 59 11.5 139t54.5 137q59 99 168 157q59 32 138 54q193 51 365 -54q160 -97 230 -324l74 22q121 36 236 72 q12 -45 9 -92.5t-3 -89.5t12 -73t54 -43zM303 359q41 -110 98 -167q105 -106 272 -62q120 32 178 140.5t27 242.5z"></glyph><glyph glyph-name="eopen" unicode="ɛ" d="M979 330q0 -152 -127 -251t-352 -99q-174 0 -296 83.5t-122 225.5q0 106 63.5 178t169.5 102q-90 41 -135 98.5t-45 159.5q0 123 109.5 196t275.5 73q232 0 325 -111t93 -219h-170q-18 94 -80.5 136t-159.5 42q-118 0 -169.5 -38t-51.5 -105q0 -80 53.5 -122t167.5 -42 h105v-143h-119q-113 0 -181.5 -45.5t-68.5 -153.5q0 -88 75 -131t169 -43q133 0 205.5 51t95.5 158h170z"></glyph><glyph glyph-name="eopenreversed" unicode="ɜ" d="M253 330q23 -107 95.5 -158t205.5 -51q94 0 169 43t75 131q0 108 -68.5 153.5t-181.5 45.5h-119v143h105q114 0 167.5 42t53.5 122q0 67 -51.5 105t-169.5 38q-97 0 -159.5 -42t-80.5 -136h-170q0 108 93 219t325 111q166 0 275.5 -73t109.5 -196q0 -102 -45 -159.5 t-135 -98.5q106 -30 169.5 -102t63.5 -178q0 -142 -122 -225.5t-296 -83.5q-225 0 -352 99t-127 251h170z"></glyph><glyph glyph-name="eopenreversedhook" unicode="ɝ" d="M1341 776q27 -9 53 -3t48.5 21t40.5 37.5t30 46.5q12 -12 23.5 -20t22.5 -15t22.5 -15t23.5 -20q-30 -72 -88.5 -110t-143.5 -44q-57 -6 -100.5 10.5t-73.5 50.5t-45 83.5t-15 109.5q-42 -9 -85 -23.5t-86 -29.5q-31 -11 -62 -21v-7q0 -102 -45 -159.5t-135 -98.5 q106 -30 169.5 -102t63.5 -178q0 -142 -122 -225.5t-296 -83.5q-225 0 -352 99t-127 251h170q23 -107 95.5 -158t205.5 -51q94 0 169 43t75 131q0 108 -68.5 153.5t-181.5 45.5h-119v143h105q114 0 167.5 42t53.5 122q0 67 -51.5 105t-169.5 38q-97 0 -159.5 -42t-80.5 -136 h-170q0 108 93 219t325 111q166 0 275 -73q46 -31 73 -71q81 25 164 50q121 36 236 72q12 -45 9 -92.5t-3 -89.5t12 -73t54 -43z"></glyph><glyph glyph-name="eopenreversedclosed" unicode="ɞ" d="M199 985q66 79 202 101l126 10q164 -1 272 -73q110 -73 110 -196q0 -102 -45 -159.5t-135 -98.5q106 -30 169.5 -102t63.5 -178q0 -142 -122 -225.5t-296 -83.5q-22 0 -42 1q-150 28 -219.5 70.5t-145.5 145t-76 309.5q0 258 138 479zM527 941q-172 0 -246 -168 q-48 -109 -48 -269q0 -161 68 -271q33 -54 85 -82q55 -21 86.5 -24.5t42 -4.5t63 -1t127.5 43t75 131q0 108 -68.5 153.5t-181.5 45.5l-14 143q114 0 167.5 42t53.5 122q0 67 -52 105q-49 36 -158 38v-3z"></glyph><glyph glyph-name="jdotlessstroke" unicode="ɟ" d="M346 -339q-63 -92 -243 -92q-17 0 -35 1t-41 3v164q28 -2 40.5 -2.5t23.5 -0.5q82 0 98 42.5t16 216.5h-178v142h180v924h178v-924h149v-142h-149v-168q-4 -112 -39 -164z"></glyph><glyph glyph-name="uni0260" unicode="ɠ" d="M1169 1125q-121 -4 -146 -22q-19 -13 -23 -72v-944q0 -204 -60 -322q-112 -218 -423 -218q-173 0 -291 77.5t-132 242.5h183q13 -72 52 -111q61 -60 192 -60q207 0 271 146q38 86 35 307q-54 -82 -130 -122t-201 -40q-174 0 -304.5 123.5t-130.5 408.5q0 269 131.5 420 t317.5 151q126 0 220 -62q44 -30 89 -84v69q0 117 38 175q63 98 239 98q13 0 27.5 -1t45.5 -4v-156zM543 931q-190 0 -260 -178q-37 -95 -37 -249q0 -181 73.5 -275.5t197.5 -94.5q194 0 273 175q44 99 44 231q0 199 -82 295t-209 96z"></glyph><glyph glyph-name="gscript" unicode="ɡ" d="M730 1028q51 -35 104 -102v135h166v-974q0 -204 -60 -322q-112 -218 -423 -218q-173 0 -291 77.5t-132 242.5h183q13 -72 52 -111q61 -60 192 -60q207 0 271 146q38 86 35 307q-54 -82 -130 -122t-201 -40q-174 0 -304.5 123.5t-130.5 408.5q0 269 131.5 420t317.5 151 q126 0 220 -62zM543 931q-190 0 -260 -178q-37 -95 -37 -249q0 -181 73.5 -275.5t197.5 -94.5q194 0 273 175q44 99 44 231q0 199 -82 295t-209 96z"></glyph><glyph glyph-name="hturned" unicode="ɥ" d="M1004 -427h-180v548q-64 -81 -115 -114q-87 -57 -217 -57q-233 0 -316 163q-45 89 -45 247v687h185v-675q0 -118 30 -173q49 -88 184 -88q112 0 203 77t91 291v568h180v-1474z"></glyph><glyph glyph-name="uni0266" unicode="ɦ" d="M480 1381q-121 -4 -145.5 -21.5t-24.5 -109.5v-96h2v-228q64 81 115 114q87 57 217 57q233 0 316 -163q45 -89 45 -247v-687h-185v675q0 118 -30 173q-49 88 -184 88q-112 0 -203 -77t-91 -291v-568h-180v814h-2v455q0 117 38 175q63 98 239 98q13 0 27.5 -1t45.5 -4 v-156z"></glyph><glyph glyph-name="uni0267" unicode="ɧ" d="M1172 -427q-31 -3 -45.5 -4t-27.5 -1q-176 0 -239 98q-38 58 -38 175v159h-2v675q0 118 -30 173q-49 88 -184 88q-112 0 -203 -77t-91 -291v-568h-180v814h-2v455q0 117 38 175q63 98 239 98q13 0 27.5 -1t45.5 -4v-156q-121 -4 -145.5 -21.5t-24.5 -109.5v-96h2v-228 q64 81 115 114q87 57 217 57q233 0 316 -163q45 -89 45 -247v-687h-3v-140q0 -92 24.5 -109.5t145.5 -21.5v-156z"></glyph><glyph glyph-name="istroke" unicode="ɨ" d="M35 760h237v306h183v-306h220v-118h-220v-642h-183v642h-237v118zM272 1469h183v-204h-183v204z"></glyph><glyph glyph-name="iotalatin" unicode="ɩ" d="M465 0q-8 -4 -68.5 -8t-68.5 -4q-90 0 -141.5 57t-51.5 145v885h164v-837q0 -31 5 -47.5t20.5 -32t44 -19.5t55.5 -4h41v-135z"></glyph><glyph glyph-name="Ismallipa" unicode="ɪ" d="M35 184h157v695h-157v185h157v2h183v-2h162v-185h-162v-695h162v-185h-502v185z"></glyph><glyph glyph-name="lmiddletilde" unicode="ɫ" d="M287 1469h180v-622l10 -3q23 -7 47 -7q56 0 80 35q13 19 18 57h105q-21 -127 -80.5 -175t-130.5 -48q-20 0 -49 6v-712h-180v771q-9 3 -17 5q-29 9 -57 9q-35 0 -57.5 -23t-30.5 -70h-98q13 79 43 129q57 92 169 92q22 0 48 -5v561z"></glyph><glyph glyph-name="uni026D" unicode="ɭ" d="M484 -427q-31 -3 -45.5 -4t-27.5 -1q-176 0 -239 98q-38 58 -38 175v455h3v1173h180v-1469h-3v-140q0 -92 24.5 -109.5t145.5 -21.5v-156z"></glyph><glyph glyph-name="mturned" unicode="ɯ" d="M1572 23h-178v152q-64 -79 -116 -115q-89 -61 -202 -61q-128 0 -206 63q-44 36 -80 106q-60 -86 -141 -127.5t-182 -41.5q-216 0 -294 156q-42 84 -42 226v713h187v-744q0 -107 53.5 -147t130.5 -40q106 0 182.5 71t76.5 237v623h183v-699q0 -109 26 -159q41 -75 153 -75 q102 0 185.5 79t83.5 286v568h180v-1071z"></glyph><glyph glyph-name="mlonglegturned" unicode="ɰ" d="M1572 -427h-178v602q-64 -79 -116 -115q-89 -61 -202 -61q-128 0 -206 63q-44 36 -80 106q-60 -86 -141 -127.5t-182 -41.5q-216 0 -294 156q-42 84 -42 226v713h187v-744q0 -107 53.5 -147t130.5 -40q106 0 182.5 71t76.5 237v623h183v-699q0 -109 26 -159 q41 -75 153 -75q102 0 185.5 79t83.5 286v568h180v-1521z"></glyph><glyph glyph-name="mhook" unicode="ɱ" d="M1223 -271q121 4 145.5 21.5t24.5 109.5v140h-7v744q0 107 -53.5 147t-130.5 40q-106 0 -182.5 -71t-76.5 -237v-623h-183v699q0 109 -26 159q-41 75 -153 75q-102 0 -185.5 -79t-83.5 -286v-568h-180v1071h178v-152q64 79 116 115q89 61 202 61q128 0 206 -63 q44 -36 80 -106q60 86 141 127.5t182 41.5q216 0 294 -156q42 -84 42 -226v-872q0 -117 -38 -175q-63 -98 -239 -98q-13 0 -27.5 1t-45.5 4v156z"></glyph><glyph glyph-name="nhookleft" unicode="ɲ" d="M-42 -271q121 4 145.5 21.5t24.5 109.5v1206h4v5h171v-5h5v-141q73 89 156 129q85 41 189 41q228 0 308 -159q44 -87 44 -249v-687h-183v675q0 98 -29 158q-48 100 -174 100q-64 0 -105 -13q-74 -22 -130 -88q-45 -53 -58.5 -109.5t-13.5 -161.5v-561h-4v-159 q0 -117 -38 -175q-63 -98 -239 -98q-13 0 -27.5 1t-45.5 4v156z"></glyph><glyph glyph-name="uni0273" unicode="ɳ" d="M1172 -427q-31 -3 -45.5 -4t-27.5 -1q-176 0 -239 98q-38 58 -38 175v834q0 98 -29 158q-48 100 -174 100q-64 0 -105 -13q-74 -22 -130 -88q-45 -53 -58.5 -109.5t-13.5 -161.5v-561h-180v1071h171v-152q76 94 161 135t189 41q228 0 308 -159q44 -87 44 -249v-687h-3 v-140q0 -92 24.5 -109.5t145.5 -21.5v-156z"></glyph><glyph glyph-name="Nsmallipa" unicode="ɴ" d="M84 1071h235l526 -792v792h189v-1071h-223l-537 791v-791h-190v1071z"></glyph><glyph glyph-name="uni0275" unicode="ɵ" d="M1057 558q0 -259 -126 -428t-391 -169q-221 0 -351 149.5t-130 401.5q0 270 137 430t368 160q207 0 350 -138t143 -406zM821 797q-76 148 -262 148q-165 0 -240 -126q-60 -101 -72 -234h621q-4 128 -47 212zM319 230q75 -114 238 -114q179 0 245 135q49 100 62 216h-619 q10 -140 74 -237z"></glyph><glyph glyph-name="uni0276" unicode="ɶ" d="M578 1099q169 0 280 -81q62 -45 116 -130q64 99 167 154t232 55q119 0 215.5 -48.5t162.5 -143.5q61 -87 81 -203q12 -71 14 -224h-794q5 -132 46 -213q76 -154 269 -154q135 0 214 91q44 49 73 134h180q-42 -177 -169.5 -278t-301.5 -101q-118 0 -221.5 47t-186.5 171 q-70 -122 -174 -169t-217 -47q-208 0 -350.5 142.5t-142.5 421.5q0 247 133 411.5t374 164.5zM1659 616q-8 116 -49 188q-75 134 -253 134q-89 0 -165 -53q-118 -83 -138 -269h605zM884 549q0 197 -88 295.5t-224 98.5q-134 0 -225 -106t-91 -325q0 -184 89.5 -291.5 t230.5 -107.5q113 0 210.5 95t97.5 341z"></glyph><glyph glyph-name="philatin" unicode="ɸ" d="M831 160q181 6 277 112q94 109 94 281q-2 368 -371 401v-794zM647 0q-239 4 -399 147q-164 142 -168 385q0 262 151 420q150 160 416 162v332h184v-332q269 -2 418 -162q148 -158 150 -420q-4 -243 -166 -385q-160 -143 -402 -147v-417h-184v417zM647 954 q-371 -33 -371 -401q0 -172 99 -281q94 -106 272 -112v794z"></glyph><glyph glyph-name="rturned" unicode="ɹ" d="M657 23h-171v185q-21 -54 -103 -131.5t-189 -77.5q-5 0 -17 1t-41 4v190q16 -3 29.5 -4t29.5 -1q136 0 209 87.5t73 201.5v616h180v-1071z"></glyph><glyph glyph-name="rlonglegturned" unicode="ɺ" d="M657 23h-171v185q-21 -54 -103 -131.5t-189 -77.5q-5 0 -17 1t-41 4v190q16 -3 29.5 -4t29.5 -1q136 0 209 87.5t73 201.5v991h180v-1446z"></glyph><glyph glyph-name="uni027B" unicode="ɻ" d="M828 -427q-31 -3 -45.5 -4t-27.5 -1q-176 0 -239 98q-38 58 -38 175v349q-26 -48 -95 -114q-82 -77 -189 -77q-5 0 -17 1t-41 4v190q16 -3 29.5 -4t29.5 -1q136 0 209 87.5t73 201.5v616h180v-798h1v-436q0 -92 24.5 -109.5t145.5 -21.5v-156z"></glyph><glyph glyph-name="rlongleg" unicode="ɼ" d="M137 1071h171v-185q21 54 103 131.5t189 77.5q5 0 17 -1t41 -4v-190q-16 3 -29.5 4t-29.5 1q-136 0 -209 -87.5t-73 -201.5v-923h-180v1378z"></glyph><glyph glyph-name="uni027D" unicode="ɽ" d="M484 -427q-31 -3 -45.5 -4t-27.5 -1q-176 0 -239 98q-38 58 -38 175v455h3v775h171v-185q21 54 103 131.5t189 77.5q5 0 17 -1t41 -4v-190q-16 3 -29.5 4t-29.5 1q-136 0 -209 -87.5t-73 -201.5v-616h-3v-140q0 -92 24.5 -109.5t145.5 -21.5v-156z"></glyph><glyph glyph-name="rfishhook" unicode="ɾ" d="M432 875q-161 26 -185.5 8.5t-24.5 -109.5v-774h-180v793q0 117 38 175q63 98 279 68q13 0 27.5 -1t45.5 -4v-156z"></glyph><glyph glyph-name="rfishhookreversed" unicode="ɿ" d="M42 1031q31 3 45.5 4t27.5 1q216 30 279 -68q38 -58 38 -175v-793h-180v774q0 92 -24.5 109.5t-185.5 -8.5v156z"></glyph><glyph glyph-name="Rsmallipa" unicode="ʀ" d="M556 580q102 0 161.5 41t59.5 147q0 59 -83 100q-45 22 -119 22h-243v-310h224zM131 1071h496q123 0 202 -36q151 -68 151 -253q0 -96 -40 -157t-111 -99q63 -53 94.5 -94.5t35.5 -107.5l5 -143q2 -61 10 -91q13 -51 47 -66v-24h-234q-7 14 -11.5 36t-7.5 84l-9 179 q-5 77 -78 113q-41 19 -130 19h-219v-431h-201v1071z"></glyph><glyph glyph-name="Rsmallinverted" unicode="ʁ" d="M332 491v-310h243q74 0 119 22q83 41 83 100q0 106 -59.5 147t-161.5 41h-224zM131 1071h201v-431h219q89 0 130 19q73 36 78 113l9 179q3 62 7.5 84t11.5 36h234v-24q-34 -15 -47 -66q-8 -30 -10 -91l-5 -143q-4 -66 -35.5 -107.5t-94.5 -94.5q71 -38 111 -99t40 -157 q0 -185 -151 -253q-79 -36 -202 -36h-496v1071z"></glyph><glyph glyph-name="esh" unicode="ʃ" d="M409 1353q77 192 276 192q43 0 82 -9q24 -5 65 -19l-15 -162q-41 17 -66.5 25.5t-49.5 8.5q-90 0 -123 -91q-34 -91 -45 -317l-33 -683q-18 -364 -94 -541q-77 -177 -281 -177q-40 0 -70 7t-58 17l14 166q26 -13 50 -21t53 -8q85 0 128 77q42 76 54 281l52 882 q16 262 61 372z"></glyph><glyph glyph-name="dotlessjstrokehook" unicode="ʄ" d="M65 118h232l51 863q16 262 61 372q77 192 276 192q43 0 82 -9q24 -5 65 -19l-15 -162q-41 17 -66.5 25.5t-49.5 8.5q-90 0 -123 -91q-34 -91 -45 -317l-33 -683q-5 -97 -14 -180h219v-118h-234q-25 -148 -65 -243q-77 -177 -281 -177q-40 0 -70 7t-58 17l14 166 q26 -13 50 -21t53 -8q85 0 128 77q31 56 45 182h-222v118z"></glyph><glyph glyph-name="eshsquatreversed" unicode="ʅ" d="M440 964q45 -60 61 -204l52 -486q12 -112 54 -154q43 -42 128 -42q29 0 53 4t50 11l14 -91q-28 -5 -58 -9t-70 -4q-204 0 -281 97q-76 98 -94 298l-33 376q-11 124 -45 174q-33 50 -123 50q-24 0 -49.5 -4.5t-66.5 -14.5l-15 89q41 8 65 11q39 5 82 5q199 0 276 -106z "></glyph><glyph glyph-name="tturned" unicode="ʇ" d="M376 -18h-182v299h-171v147h171v699q0 56 -38 75q-21 11 -70 11q-13 0 -28 -0.5t-35 -2.5v142q31 9 64.5 13t72.5 4q126 0 171 -64.5t45 -167.5v-709h145v-147h-145v-299z"></glyph><glyph glyph-name="tretroflexhook" unicode="ʈ" d="M168 1370h182v-299h171v-147h-171v-1126q0 -56 38 -75q21 -11 70 -11q13 0 28 0.5t35 2.5v-142q-31 -9 -64.5 -13t-72.5 -4q-126 0 -171 64.5t-45 167.5v1136h-145v147h145v299z"></glyph><glyph glyph-name="ubar" unicode="ʉ" d="M48 624v142h170v305h184v-305h498v305h180v-305h195v-142h-195v-624h-170l2 158q-35 -61 -87 -103q-103 -84 -250 -84q-229 0 -312 153q-45 82 -45 219v281h-170zM428 226q48 -96 179 -96q188 0 256 168q37 90 37 247v79h-498v-264q0 -82 26 -134z"></glyph><glyph glyph-name="upsilonlatin" unicode="ʊ" d="M907 500q0 140 -64 247t-189 182v143h409v-142h-272q90 -35 181 -142.5t91 -287.5q0 -221 -129 -361t-373 -140q-243 0 -372 139.5t-129 361.5q0 180 90.5 287.5t181.5 142.5h-272v142h409v-143q-126 -75 -189.5 -181t-63.5 -248q0 -164 86.5 -254t255.5 -90 q173 0 261 89.5t88 254.5z"></glyph><glyph glyph-name="vturned" unicode="ʌ" d="M792 -1l-286 872l-299 -872h-197l404 1071h192l395 -1071h-209z"></glyph><glyph glyph-name="wturned" unicode="ʍ" d="M1243 -1l-206 844l-209 -844h-202l-210 839l-219 -839h-180l311 1071h187l218 -829l211 829h187l309 -1071h-197z"></glyph><glyph glyph-name="yturned" unicode="ʎ" d="M219 0h-199q38 103 169 470q98 276 164 450q156 410 220 500t220 90q38 0 58.5 -3t50.5 -11v-164q-47 13 -68 16t-37 3q-50 0 -73.5 -16.5t-39.5 -40.5q-5 -8 -36 -82t-45 -110l396 -1102h-204l-287 872z"></glyph><glyph glyph-name="Ysmallipa" unicode="ʏ" d="M30 1071h232l245 -515l245 515h233l-378 -639v-432h-199v432z"></glyph><glyph glyph-name="ezh" unicode="ʒ" d="M157 428l551 474h-660v164h892v-164l-360 -312q151 -27 256 -148q137 -157 137 -439q0 -230 -150 -333.5t-360 -103.5q-187 0 -292 108.5t-135 321.5h175q25 -119 75.5 -197.5t162.5 -78.5q146 0 239 60t93 221q0 160 -61 298.5t-233 138.5l-98 -10h-232z"></glyph><glyph glyph-name="glottalstop" unicode="ʔ" d="M613 1488q197 0 315.5 -112.5t118.5 -287.5q0 -106 -43.5 -172t-175.5 -194q-96 -93 -124.5 -157.5t-28.5 -564.5h-178q0 517 34 604.5t149 200.5l80 79q36 34 58 71q40 65 40 135q0 98 -58.5 170t-193.5 72q-167 0 -231 -124q-36 -69 -41 -199h-178q0 216 122 347.5 t335 131.5z"></glyph><glyph glyph-name="glottalstopreversed" unicode="ʕ" d="M591 1488q213 0 335 -131.5t122 -347.5h-178q-5 130 -41 199q-64 124 -231 124q-135 0 -193.5 -72t-58.5 -170q0 -70 40 -135q22 -37 58 -71l80 -79q115 -113 149 -200.5t34 -604.5h-178q0 500 -28.5 564.5t-124.5 157.5q-132 128 -175.5 194t-43.5 172 q0 175 118.5 287.5t315.5 112.5z"></glyph><glyph glyph-name="glottalstopinverted" unicode="ʖ" d="M613 0q-213 0 -335 131.5t-122 347.5h178q5 -130 41 -199q64 -124 231 -124q135 0 193.5 72t58.5 170q0 70 -40 135q-22 37 -58 71l-80 79q-115 113 -149 200.5t-34 604.5h178q0 -500 28.5 -564.5t124.5 -157.5q132 -128 175.5 -194t43.5 -172q0 -175 -118.5 -287.5 t-315.5 -112.5z"></glyph><glyph glyph-name="cstretched" unicode="ʗ" d="M975 711h-175q-16 99 -73 164.5t-183 65.5q-172 0 -246 -288q-48 -199 -48 -359q0 -161 68 -360.5t214 -199.5q112 0 177.5 68.5t90.5 187.5h175q-30 -213 -150 -311.5t-307 -98.5q-210 0 -335 193t-125 523q0 382 137 594t349 212q181 0 294.5 -88t136.5 -303z"></glyph><glyph glyph-name="bilabialclick" unicode="ʘ" d="M1366 1259q146 -195 146 -499q0 -329 -167 -547q-196 -256 -559 -256q-339 0 -533 224q-173 216 -173 546q0 298 148 510q190 272 562 272q389 0 576 -250zM1308 757q0 259 -135.5 417t-370.5 158q-228 0 -372 -156.5t-144 -461.5q0 -244 123.5 -411.5t400.5 -167.5 q263 0 380.5 188.5t117.5 433.5zM687 847h209v-218h-209v218z"></glyph><glyph glyph-name="eopenclosed" unicode="ʚ" d="M824 985q138 -221 138 -479q0 -207 -76 -309.5t-145.5 -145t-219.5 -70.5q-20 -1 -42 -1q-174 0 -296 83.5t-122 225.5q0 106 63.5 178t169.5 102q-90 41 -135 98.5t-45 159.5q0 123 110 196q108 72 272 73l126 -10q136 -22 202 -101zM496 944q-109 -2 -158 -38 q-52 -38 -52 -105q0 -80 53.5 -122t167.5 -42l-14 -143q-113 0 -181.5 -45.5t-68.5 -153.5q0 -88 75 -131t127.5 -43t63 1t42 4.5t86.5 24.5q52 28 85 82q68 110 68 271q0 160 -48 269q-74 168 -246 168v3z"></glyph><glyph glyph-name="Hsmallipa" unicode="ʜ" d="M161 1072h201v-413h484v413h201v-1072h-201v502h-484v-502h-201v1072z"></glyph><glyph glyph-name="kturned" unicode="ʞ" d="M1016 -398h-173v853l-462 -455h-230l410 401l-433 670h230l334 -540l151 138v402h173v-1469z"></glyph><glyph glyph-name="Lsmallipa" unicode="ʟ" d="M156 1071h199v-896h544v-175h-743v1071z"></glyph><glyph glyph-name="uni02A0" unicode="ʠ" d="M1173 1202q-121 -4 -145.5 -21.5t-24.5 -109.5h2v-1498h-181v550q-45 -72 -124.5 -114.5t-198.5 -42.5q-171 0 -306 134t-135 408q0 257 126.5 422t327.5 165q133 0 224 -67q44 -32 85 -90v152q0 117 38 175q63 98 239 98q13 0 27.5 -1t45.5 -4v-156zM287 288 q69 -167 247 -167q188 0 259 176q39 97 39 248q0 139 -43 232q-73 159 -257 159q-117 0 -200.5 -101.5t-83.5 -313.5q0 -139 39 -233z"></glyph><glyph glyph-name="glottalstopstroke" unicode="ʡ" d="M271 366h232q8 189 28 238q34 88 149 201l80 79q36 34 58 71q40 65 40 135q0 98 -58.5 170t-193.5 72q-167 0 -231 -124q-36 -69 -41 -199h-178q0 216 122 347.5t335 131.5q197 0 315.5 -112.5t118.5 -287.5q0 -106 -43.5 -172t-175.5 -194q-96 -93 -125 -158 q-15 -35 -22 -198h230v-118h-234q-2 -107 -2 -248h-178q0 139 2 248h-228v118z"></glyph><glyph glyph-name="glottalstopstrokereversed" unicode="ʢ" d="M932 248h-228q2 -109 2 -248h-178q0 141 -2 248h-234v118h230q-7 163 -22 198q-29 65 -125 158q-132 128 -175.5 194t-43.5 172q0 175 118.5 287.5t315.5 112.5q213 0 335 -131.5t122 -347.5h-178q-5 130 -41 199q-64 124 -231 124q-135 0 -193.5 -72t-58.5 -170 q0 -70 40 -135q22 -37 58 -71l80 -79q115 -113 149 -201q20 -49 28 -238h232v-118z"></glyph><glyph glyph-name="uni02A3" unicode="ʣ" d="M723 1038q48 -30 109 -105v541h173v-403h813v-147l-631 -763h650v-161h-994v149q-63 -99 -149 -143t-197 -44q-179 0 -310 150.5t-131 400.5q0 234 119.5 405.5t341.5 171.5q123 0 206 -52zM553 119q125 0 205.5 107.5t80.5 308.5q0 203 -83 300.5t-205 97.5 q-136 0 -220.5 -104t-84.5 -306q0 -172 73 -288t234 -116zM1576 910h-571v-691z"></glyph><glyph glyph-name="dezh" unicode="ʤ" d="M1057 428l551 474h-636v-902h-162v149q-63 -99 -149 -143t-197 -44q-179 0 -310 150.5t-131 400.5q0 234 119.5 405.5t341.5 171.5q123 0 206 -52q48 -30 109 -105v541h173v-408h868v-164l-360 -312q151 -27 256 -148q137 -157 137 -439q0 -230 -150 -333.5t-360 -103.5 q-187 0 -292 108.5t-135 321.5h175q25 -119 75.5 -197.5t162.5 -78.5q146 0 239 60t93 221q0 160 -61 298.5t-233 138.5l-98 -10h-232zM520 119q125 0 205.5 107.5t80.5 308.5q0 203 -83 300.5t-205 97.5q-136 0 -220.5 -104t-84.5 -306q0 -172 73 -288t234 -116z"></glyph><glyph glyph-name="uni02A6" unicode="ʦ" d="M168 1370h182v-299h171v-111q19 24 43 45q110 94 295 94q242 0 349 -142q67 -90 65 -194h-170q-5 61 -43 111q-62 71 -215 71q-102 0 -154.5 -39t-52.5 -103q0 -70 69 -112q40 -25 118 -44l119 -29q194 -47 260 -91q105 -69 105 -217q0 -143 -108.5 -247t-330.5 -104 q-239 0 -339 108l-10 12v-79q-31 -9 -64.5 -13t-72.5 -4q-126 0 -171 64.5t-45 167.5v709h-145v147h145v299zM598 336q8 -90 45 -138q68 -87 236 -87q100 0 176 43.5t76 134.5q0 69 -61 105q-39 22 -154 51l-143 36q-137 34 -202 76q-116 73 -116 202q0 93 41 165h-146v-699 q0 -56 38 -75q21 -11 70 -11h21q-49 86 -54 197h173z"></glyph><glyph glyph-name="uni02A7" unicode="ʧ" d="M616 1353q77 192 276 192q43 0 82 -9q24 -5 65 -19l-15 -162q-41 17 -66.5 25.5t-49.5 8.5q-90 0 -123 -91q-34 -91 -45 -317l-33 -683q-18 -364 -94 -541q-77 -177 -281 -177q-40 0 -70 7t-58 17l14 166q26 -13 50 -21t53 -8q85 0 128 77q30 55 44 175q-18 -3 -37 -6 q-33 -4 -72 -4q-126 0 -171 64.5t-45 167.5v709h-145v147h145v299h182v-299h212q17 192 54 282zM350 225q0 -56 38 -75q21 -11 70 -11h28q9 1 19 1l46 784h-201v-699z"></glyph><glyph glyph-name="uni02A9" unicode="ʩ" d="M1044 -271q121 4 145.5 21.5t24.5 109.5v140h-3v675q0 98 -29 158q-48 100 -174 100q-64 0 -105 -13q-74 -22 -130 -88q-45 -53 -58.5 -109.5t-13.5 -161.5v-561h-180v924h-166v-924h-178v924h-149v142h149v168q4 112 39 164q63 92 243 92q17 0 35 -1t41 -3v-164 q-28 2 -40.5 2.5t-23.5 0.5q-82 0 -98 -42.5t-16 -216.5h164v5h171v-152q76 94 161 135t189 41q228 0 308 -159q44 -87 44 -249v-846q0 -117 -38 -175q-63 -98 -239 -98q-13 0 -27.5 1t-45.5 4v156z"></glyph><glyph glyph-name="uni02AA" unicode="ʪ" d="M137 1469h180v-576q27 64 83 112q110 94 295 94q242 0 349 -142q67 -90 65 -194h-170q-5 61 -43 111q-62 71 -215 71q-102 0 -154.5 -39t-52.5 -103q0 -70 69 -112q40 -25 118 -44l119 -29q194 -47 260 -91q105 -69 105 -217q0 -143 -108.5 -247t-330.5 -104 q-239 0 -339 108q-29 32 -50 68v-135h-180v1469zM434 336q8 -90 45 -138q68 -87 236 -87q100 0 176 43.5t76 134.5q0 69 -61 105q-39 22 -154 51l-143 36q-137 34 -202 76q-61 38 -90 92v-313h117z"></glyph><glyph glyph-name="uni02AB" unicode="ʫ" d="M137 1469h180v-398h797v-147l-631 -763h650v-161h-996v1469zM872 910h-555v-671z"></glyph><glyph glyph-name="uni02AC" unicode="ʬ" d="M128 637l122 -502l125 502h120l124 -499l131 499h107l-185 -637h-111l-130 493l-125 -493h-112l-183 637h117zM128 1469l122 -502l125 502h120l124 -499l131 499h107l-185 -637h-111l-130 493l-125 -493h-112l-183 637h117z"></glyph><glyph glyph-name="uni02AD" unicode="ʭ" d="M1247 603v-603h-111v476h-921v-476h-111v603h1143zM1247 1427v-603h-111v476h-921v-476h-111v603h1143z"></glyph><glyph glyph-name="uni02AE" unicode="ʮ" d="M50 1325q31 3 45.5 4t27.5 1q176 0 239 -98q38 -58 38 -175v-10h6v-675q0 -118 30 -173q49 -88 184 -88q112 0 203 77t91 291v568h180v-1474h-180v548q-64 -81 -115 -114q-87 -57 -217 -57q-233 0 -316 163q-45 89 -45 247v242h-1v436q0 92 -24.5 109.5t-145.5 21.5v156z "></glyph><glyph glyph-name="uni02AF" unicode="ʯ" d="M1262 -427q-31 -3 -45.5 -4t-27.5 -1q-176 0 -239 98q-38 58 -38 175v277q-63 -79 -113 -111q-87 -57 -217 -57q-233 0 -316 163q-45 89 -45 247v242h-1v436q0 92 -24.5 109.5t-145.5 21.5v156q31 3 45.5 4t27.5 1q176 0 239 -98q38 -58 38 -175v-10h6v-675 q0 -118 30 -173q49 -88 184 -88q112 0 203 77t91 291v568h180v-1204h-2q2 -76 24 -92q25 -18 146 -22v-156z"></glyph><glyph glyph-name="uni02B0" unicode="ʰ" d="M66 1467h90v-274q32 41 58 57q43 29 108 29q117 0 158 -82q23 -44 23 -123v-344h-93v338q0 59 -15 86q-24 44 -92 44q-56 0 -101.5 -38.5t-45.5 -145.5v-284h-90v737z"></glyph><glyph glyph-name="uni02B1" unicode="ʱ" d="M240 1421q-60 -2 -72.5 -11t-12.5 -55v-48h1v-114q32 41 58 57q43 29 108 29q117 0 158 -82q23 -44 23 -123v-344h-93v338q0 59 -15 86q-24 44 -92 44q-56 0 -101.5 -38.5t-45.5 -145.5v-284h-90v407h-1v228q0 58 19 87q32 49 120 49q6 0 13.5 -0.5l22.5 -1.5v-78z"></glyph><glyph glyph-name="uni02B2" unicode="ʲ" d="M156 1361h-90v104h90v-104zM-19 594q61 2 73 11t12 55v603h90v-613q0 -58 -19 -87q-31 -49 -119 -49q-7 0 -14.5 0.5l-22.5 1.5v78z"></glyph><glyph glyph-name="uni02B3" unicode="ʳ" d="M69 1266h85v-93q11 27 52 66t94 39q3 0 9 -0.5t20 -2.5v-95q-8 2 -14.5 2.5t-14.5 0.5q-68 0 -104.5 -44t-36.5 -101v-308h-90v536z"></glyph><glyph glyph-name="uni02B4" unicode="ʴ" d="M329 742h-86v92q-10 -27 -51 -66t-95 -39q-2 0 -8 1t-21 2v95q8 -1 15 -1.5t15 -0.5q68 0 104.5 43.5t36.5 100.5v308h90v-535z"></glyph><glyph glyph-name="uni02B5" unicode="ʵ" d="M414 516l-22.5 -1.5t-13.5 -0.5q-88 0 -120 49q-19 29 -19 87v175q-13 -24 -47 -57q-41 -39 -95 -39q-2 0 -8 1t-21 2v95q8 -1 15 -1.5t15 -0.5q68 0 104.5 43.5t36.5 100.5v308h90v-399v0v-218q0 -46 12.5 -55t72.5 -11v-78z"></glyph><glyph glyph-name="Rsmallinvertedsuperior" unicode="ʶ" d="M236 1058v-220h172q53 0 85 15q59 29 59 71q0 75 -42.5 104.5t-114.5 29.5h-159zM93 1469h143v-306h155q63 0 93 14q51 25 55 80l6 127q2 44 5.5 59.5t8.5 25.5h166v-17q-24 -10 -33 -46q-6 -22 -8 -65l-3 -102q-3 -46 -25.5 -75.5t-66.5 -67.5q50 -27 78.5 -70.5 t28.5 -111.5q0 -131 -107 -179q-56 -26 -144 -26h-352v760z"></glyph><glyph glyph-name="uni02B7" unicode="ʷ" d="M108 1266l103 -422l104 422h101l105 -420l110 420h90l-156 -536h-93l-109 415l-106 -415h-93l-155 536h99z"></glyph><glyph glyph-name="uni02B8" unicode="ʸ" d="M401 1266h99q-19 -52 -84 -235q-49 -138 -82 -225q-78 -206 -110 -251t-110 -45q-19 0 -29.5 1.5t-25.5 5.5v82q24 -6 34.5 -7.5t18.5 -1.5q25 0 36.5 8t19.5 20q3 4 18.5 41t22.5 55l-198 552h102l143 -436z"></glyph><glyph glyph-name="primemod" unicode="ʹ" d="M299 1464l-133 -578h-69l91 578h111z"></glyph><glyph glyph-name="dblprimemod" unicode="ʺ" d="M299 1464l-133 -578h-69l91 578h111zM549 1464l-133 -578h-69l91 578h111z"></glyph><glyph glyph-name="commaturnedmod" unicode="ʻ" d="M346 1389q-55 -9 -83.5 -62t-28.5 -123q0 -6 0.5 -11.5t2.5 -12.5h109v-218h-214v201q0 119 50 212.5t164 107.5v-94z"></glyph><glyph glyph-name="apostrophemod" unicode="ʼ" d="M170 1042q55 9 83.5 62t28.5 122q0 7 -0.5 12.5t-2.5 12.5h-109v218h214v-201q0 -128 -53 -217.5t-161 -102.5v94z"></glyph><glyph glyph-name="afii64937" unicode="ʽ" d="M384 948q-108 13 -161 102.5t-53 217.5v201h214v-218h-109q-2 -7 -2.5 -12.5t-0.5 -12.5q0 -69 28.5 -122t83.5 -62v-94z"></glyph><glyph glyph-name="uni02BE" unicode="ʾ" d="M138 1208v83q52 0 89 37t37 89t-37 89t-89 37v83q86 0 147.5 -61.5t61.5 -147.5t-61.5 -147.5t-147.5 -61.5z"></glyph><glyph glyph-name="uni02BF" unicode="ʿ" d="M347 1208q-86 0 -147.5 61.5t-61.5 147.5t61.5 147.5t147.5 61.5v-83q-52 0 -89 -37t-37 -89t37 -89t89 -37v-83v0z"></glyph><glyph glyph-name="uni02C0" unicode="ˀ" d="M307 1474q98 0 157.5 -56t59.5 -144q0 -53 -22 -86t-88 -97q-48 -46 -62 -78.5t-14 -282.5h-89q0 259 17 302.5t74 100.5l40 39q18 17 29 36q20 32 20 67q0 49 -29 85t-97 36q-83 0 -115 -62q-18 -34 -21 -99h-89q0 108 61 173.5t168 65.5z"></glyph><glyph glyph-name="uni02C1" unicode="ˁ" d="M296 1474q106 0 167 -65.5t61 -173.5h-89q-2 65 -20 99q-32 62 -116 62q-67 0 -96.5 -36t-29.5 -85q0 -35 20 -67q11 -19 29 -36l40 -39q58 -57 75 -100.5t17 -302.5h-89q0 250 -14.5 282.5t-62.5 78.5q-66 64 -87.5 97t-21.5 86q0 88 59 144t158 56z"></glyph><glyph glyph-name="uni02C2" unicode="˂" d="M14 1033l585 229v-90l-478 -180l478 -181v-91l-585 230v83z"></glyph><glyph glyph-name="uni02C3" unicode="˃" d="M599 949l-585 -229v91l478 181l-478 180v90l585 -229v-84z"></glyph><glyph glyph-name="uni02C4" unicode="˄" d="M349 1284l229 -585h-90l-180 478l-181 -478h-91l230 585h83z"></glyph><glyph glyph-name="uni02C5" unicode="˅" d="M265 699l-229 585h91l181 -478l180 478h90l-229 -585h-84z"></glyph><glyph glyph-name="circumflex" unicode="ˆ" d="M435 1502l204 -289h-164l-135 192l-135 -192h-163l203 289h190z"></glyph><glyph glyph-name="caron" unicode="ˇ" d="M435 1213h-190l-203 289h163l135 -192l135 192h164z"></glyph><glyph glyph-name="uni02C8" unicode="ˈ" d="M120 1458h102v-311h-102v311z"></glyph><glyph glyph-name="uni02C9" unicode="ˉ" d="M8 1400h640v-118h-640v118z"></glyph><glyph glyph-name="uni02CA" unicode="ˊ" d="M598 1502l-267 -289h-138l183 289h222z"></glyph><glyph glyph-name="uni02CB" unicode="ˋ" d="M463 1213h-137l-268 289h223z"></glyph><glyph glyph-name="uni02CC" unicode="ˌ" d="M120 -142h102v-311h-102v311z"></glyph><glyph glyph-name="uni02CD" unicode="ˍ" d="M8 -200h640v-118h-640v118z"></glyph><glyph glyph-name="uni02CE" unicode="ˎ" d="M463 -387h-137l-268 289h223z"></glyph><glyph glyph-name="uni02CF" unicode="ˏ" d="M598 -98l-267 -289h-138l183 289h222z"></glyph><glyph glyph-name="colontriangularmod" unicode="ː" d="M33 -17v59l155 313h61l154 -313v-59h-154v0h-61v0h-155zM403 955v-59l-155 -313h-61l-154 313v59h154v0h61v0h155z"></glyph><glyph glyph-name="colontriangularhalfmod" unicode="ˑ" d="M403 655v-59l-155 -313h-61l-154 313v59h154v0h61v0h155z"></glyph><glyph glyph-name="uni02D2" unicode="˒" d="M138 408v83q52 0 89 37t37 89t-37 89t-89 37v83q86 0 147.5 -61.5t61.5 -147.5t-61.5 -147.5t-147.5 -61.5z"></glyph><glyph glyph-name="uni02D3" unicode="˓" d="M347 408q-86 0 -147.5 61.5t-61.5 147.5t61.5 147.5t147.5 61.5v-83q-52 0 -89 -37t-37 -89t37 -89t89 -37v-83v0z"></glyph><glyph glyph-name="uni02D4" unicode="˔" d="M46 -1v84h218v440h85v-440h218v-84h-218v1h-85v-1h-218z"></glyph><glyph glyph-name="uni02D5" unicode="˕" d="M567 523v-84h-218v-440h-85v440h-218v84h218v-1h85v1h218z"></glyph><glyph glyph-name="uni02D6" unicode="˖" d="M46 219v84h218v220h85v-220h218v-84h-218v-219h-85v219h-218z"></glyph><glyph glyph-name="uni02D7" unicode="˗" d="M85 532h502v-93h-502v93z"></glyph><glyph glyph-name="breve" unicode="˘" d="M127 1500q16 -65 47 -98q56 -59 174 -59q109 0 163 59q31 34 47 98h99q-20 -147 -103.5 -212t-225.5 -65q-177 0 -254 119q-40 62 -49 158h102z"></glyph><glyph glyph-name="dotaccent" unicode="˙" d="M247 1445h187v-208h-187v208z"></glyph><glyph glyph-name="ring" unicode="˚" d="M340 1291q52 0 89 37t37 89t-37 89t-89 37q-51 0 -88 -37t-37 -89t37 -89t88 -37zM340 1626q86 0 147.5 -61.5t61.5 -147.5t-61.5 -147.5t-147.5 -61.5t-147 61.5t-61 147.5t61 147.5t147 61.5z"></glyph><glyph glyph-name="ogonek" unicode="˛" d="M509 0l-58 -48q-74 -60 -94.5 -91.5t-20.5 -70.5q0 -37 26.5 -64t77.5 -27q27 0 44 5t37 16v-131q-33 -14 -59 -21q-50 -13 -102 -13q-96 0 -147.5 56t-51.5 126q0 81 58 146q46 52 143 117h147z"></glyph><glyph glyph-name="tilde" unicode="˜" d="M390 1403q28 -12 51 -19t47 -7q56 0 80 35q13 19 18 57h105q-21 -127 -80.5 -175t-130.5 -48q-22 0 -56 8t-60 18l-53 19q-47 17 -76.5 25.5t-57.5 8.5q-35 0 -57.5 -23t-30.5 -70h-98q13 79 43 129q57 92 169 92q34 0 75.5 -10t111.5 -40z"></glyph><glyph glyph-name="hungarumlaut" unicode="˝" d="M469 1502h214l-224 -291h-127zM136 1502h216l-227 -291h-126z"></glyph><glyph glyph-name="rhotichookmod" unicode="˞" d="M562 506q27 -9 53 -3t48.5 21t40.5 37.5t30 46.5q12 -12 23.5 -20t22.5 -15t22.5 -15t23.5 -20q-30 -72 -88.5 -110t-143.5 -44q-57 -6 -100.5 10.5t-73.5 50.5t-45 83.5t-15 109.5q-42 -9 -85 -23.5t-86 -29.5t-86 -28t-85 -19v122q115 36 236 72t236 72q12 -45 9 -92.5 t-3 -89.5t12 -73t54 -43z"></glyph><glyph glyph-name="uni02DF" unicode="˟" d="M58 1182l59 59l189 -190l190 190l61 -59l-190 -190l190 -190l-61 -60l-190 189l-189 -189l-59 60l189 190z"></glyph><glyph glyph-name="uni02E0" unicode="ˠ" d="M249 766l-156 355q-16 41 -26 58q-11 14 -28 14q-24 -1 -30 -3v74q18 8 41 9q53 0 76 -23q12 -10 22 -27q9 -19 18 -43l129 -309l158 392h96l-208 -497v-237h-92v237z"></glyph><glyph glyph-name="uni02E1" unicode="ˡ" d="M68 1465h90v-735h-90v735z"></glyph><glyph glyph-name="uni02E2" unicode="ˢ" d="M120 898q4 -45 22 -69q34 -44 118 -44q50 0 88 22t38 67q0 35 -30 53q-20 11 -77 25l-72 18q-68 17 -101 38q-58 37 -58 101q0 76 55 123t147 47q121 0 175 -71q33 -45 32 -97h-85q-2 31 -21 56q-31 35 -108 35q-51 0 -77 -19.5t-26 -51.5q0 -35 34 -56q20 -12 59 -22 l60 -14q97 -24 130 -46q52 -34 52 -108q0 -72 -54 -124t-165 -52q-120 0 -169.5 54.5t-53.5 134.5h87z"></glyph><glyph glyph-name="uni02E3" unicode="ˣ" d="M15 1265h117l123 -188l124 188l110 -2l-181 -259l189 -274h-115l-133 201l-129 -201h-114l188 274z"></glyph><glyph glyph-name="uni02E4" unicode="ˤ" d="M296 1474q106 0 167 -65.5t61 -173.5h-89q-2 65 -20 99q-32 62 -116 62q-67 0 -96.5 -36t-29.5 -85q0 -35 20 -67q11 -19 29 -36l40 -39q58 -57 75 -100.5t17 -302.5h-89q0 250 -14.5 282.5t-62.5 78.5q-66 64 -87.5 97t-21.5 86q0 88 59 144t158 56z"></glyph><glyph glyph-name="tonebarextrahighmod" unicode="˥" d="M613 0v1322h-613v147h784v-1469h-171z"></glyph><glyph glyph-name="tonebarhighmod" unicode="˦" d="M613 0v992h-613v147h613v330h171v-1469h-171z"></glyph><glyph glyph-name="tonebarmidmod" unicode="˧" d="M613 0v661h-613v147h613v661h171v-1469h-171z"></glyph><glyph glyph-name="tonebarlowmod" unicode="˨" d="M784 1469v-1469h-171v330h-613v147h613v992h171z"></glyph><glyph glyph-name="tonebarextralowmod" unicode="˩" d="M784 1469v-1469h-784v147h613v1322h171z"></glyph><glyph glyph-name="uni02EA" unicode="˪" d="M59 1071h85v-997h487v-74h-572v1071z"></glyph><glyph glyph-name="uni02EB" unicode="˫" d="M59 1071h85v-499h487v-74h-487v-498h-85v1071z"></glyph><glyph glyph-name="uni02EC" unicode="ˬ" d="M423 -387h-190l-203 289h163l135 -192l135 192h164z"></glyph><glyph glyph-name="uni02ED" unicode="˭" d="M-9 1400h704v-118h-704v118zM-9 1170h704v-118h-704v118z"></glyph><glyph glyph-name="uni02EE" unicode="ˮ" d="M414 1042q75 14 99 110q14 57 10 99h-109v218h214v-201q0 -119 -49 -212.5t-165 -107.5v94zM78 1042q75 14 100 110q14 57 9 99h-109v218h213v-201q0 -119 -49 -211.5t-164 -108.5v94z"></glyph><glyph glyph-name="uni02EF" unicode="˯" d="M265 -501l-229 585h91l181 -478l180 478h90l-229 -585h-84z"></glyph><glyph glyph-name="uni02F0" unicode="˰" d="M349 84l229 -585h-90l-180 478l-181 -478h-91l230 585h83z"></glyph><glyph glyph-name="uni02F1" unicode="˱" d="M14 -167l585 229v-90l-478 -180l478 -181v-91l-585 230v83z"></glyph><glyph glyph-name="uni02F2" unicode="˲" d="M599 -251l-585 -229v91l478 181l-478 180v90l585 -229v-84z"></glyph><glyph glyph-name="uni02F3" unicode="˳" d="M328 -309q52 0 89 37t37 89t-37 89t-89 37q-51 0 -88 -37t-37 -89t37 -89t88 -37zM328 26q86 0 147.5 -61.5t61.5 -147.5t-61.5 -147.5t-147.5 -61.5t-147 61.5t-61 147.5t61 147.5t147 61.5z"></glyph><glyph glyph-name="uni02F4" unicode="˴" d="M463 593h-137l-268 289h223z"></glyph><glyph glyph-name="uni02F5" unicode="˵" d="M402 591h-127l-224 291h214zM735 591h-126l-227 291h216z"></glyph><glyph glyph-name="uni02F6" unicode="˶" d="M521 882h214l-224 -291h-127zM188 882h216l-227 -291h-126z"></glyph><glyph glyph-name="uni02F7" unicode="˷" d="M376 171q28 -12 51 -19t47 -7q56 0 80 35q13 19 18 57h105q-21 -127 -80.5 -175t-130.5 -48q-22 0 -56 8t-60 18l-53 19q-47 17 -76.5 25.5t-57.5 8.5q-35 0 -57.5 -23t-30.5 -70h-98q13 79 43 129q57 92 169 92q34 0 75.5 -10t111.5 -40z"></glyph><glyph glyph-name="uni02F8" unicode="˸" d="M227 1469h209v-218h-209v218zM227 630h209v-218h-209v218z"></glyph><glyph glyph-name="uni02F9" unicode="˹" d="M190 1469h302v-74h-217v-488h-85v562z"></glyph><glyph glyph-name="uni02FA" unicode="˺" d="M492 907h-85v488h-217v74h302v-562z"></glyph><glyph glyph-name="uni02FB" unicode="˻" d="M190 562h85v-488h217v-74h-302v562z"></glyph><glyph glyph-name="uni02FC" unicode="˼" d="M492 0h-302v74h217v488h85v-562z"></glyph><glyph glyph-name="uni02FD" unicode="˽" d="M60 -17v302h74v-217h414v217h74v-302h-562z"></glyph><glyph glyph-name="uni02FE" unicode="˾" d="M60 -17v302h74v-217h414v0h74v-85h-562z"></glyph><glyph glyph-name="uni02FF" unicode="˿" d="M18 231l585 229v-171h549v-118h-549v-171l-585 230v1z"></glyph><glyph glyph-name="gravecmb" unicode="̀" d="M-367 1213h-137l-268 289h223z"></glyph><glyph glyph-name="acutecmb" unicode="́" d="M-367 1502l-267 -289h-138l183 289h222z"></glyph><glyph glyph-name="circumflexcmb" unicode="̂" d="M-475 1502l204 -289h-164l-135 192l-135 -192h-163l203 289h190z"></glyph><glyph glyph-name="tildecmb" unicode="̃" d="M-521 1403q28 -12 51 -19t47 -7q56 0 80 35q13 19 18 57h105q-21 -127 -80.5 -175t-130.5 -48q-22 0 -56 8t-60 18l-53 19q-47 17 -76.5 25.5t-57.5 8.5q-35 0 -57.5 -23t-30.5 -70h-98q13 79 43 129q57 92 169 92q34 0 75.5 -10t111.5 -40z"></glyph><glyph glyph-name="macroncmb" unicode="̄" d="M-890 1400h640v-118h-640v118z"></glyph><glyph glyph-name="overlinecmb" unicode="̅" d="M-922 1400h704v-118h-704v118z"></glyph><glyph glyph-name="brevecmb" unicode="̆" d="M-784 1500q16 -65 47 -98q56 -59 174 -59q109 0 163 59q31 34 47 98h99q-20 -147 -103.5 -212t-225.5 -65q-177 0 -254 119q-40 62 -49 158h102z"></glyph><glyph glyph-name="dotaccentcmb" unicode="̇" d="M-663 1445h187v-208h-187v208z"></glyph><glyph glyph-name="dieresiscmb" unicode="̈" d="M-498 1445h187v-208h-187v208zM-828 1445h187v-208h-187v208z"></glyph><glyph glyph-name="hookcmb" unicode="̉" d="M-570 1521q-15 10 -30.5 14.5t-38.5 4.5q-24 0 -65 -6l-4 79q22 3 43.5 5t41.5 2q51 0 94 -16.5t76 -63.5q9 -13 15.5 -34t6.5 -45q0 -20 -6 -41t-21 -39.5t-40.5 -32.5t-63.5 -22l-4 -44h-88v76q60 6 92.5 35.5t32.5 63.5q0 18 -10 34.5t-31 29.5z"></glyph><glyph glyph-name="ringcmb" unicode="̊" d="M-570 1291q52 0 89 37t37 89t-37 89t-89 37q-51 0 -88 -37t-37 -89t37 -89t88 -37zM-570 1626q86 0 147.5 -61.5t61.5 -147.5t-61.5 -147.5t-147.5 -61.5t-147 61.5t-61 147.5t61 147.5t147 61.5z"></glyph><glyph glyph-name="hungarumlautcmb" unicode="̋" d="M-442 1502h214l-224 -291h-127zM-775 1502h216l-227 -291h-126z"></glyph><glyph glyph-name="caroncmb" unicode="̌" d="M-475 1213h-190l-203 289h163l135 -192l135 192h164z"></glyph><glyph glyph-name="verticallineabovecmb" unicode="̍" d="M-621 1458h102v-311h-102v311z"></glyph><glyph glyph-name="dblverticallineabovecmb" unicode="̎" d="M-726 1458h102v-311h-102v311zM-516 1458h102v-311h-102v311z"></glyph><glyph glyph-name="dblgravecmb" unicode="̏" d="M-561 1211h-127l-224 291h214zM-228 1211h-126l-227 291h216z"></glyph><glyph glyph-name="candrabinducmb" unicode="̐" d="M-784 1500q16 -65 47 -98q56 -59 174 -59q109 0 163 59q31 34 47 98h99q-20 -147 -103.5 -212t-225.5 -65q-177 0 -254 119q-40 62 -49 158h102zM-661 1675h187v-208h-187v208z"></glyph><glyph glyph-name="breveinvertedcmb" unicode="̑" d="M-356 1222q-16 65 -47 98q-56 59 -174 59q-109 0 -163 -59q-31 -34 -47 -98h-99q20 147 103.5 212t225.5 65q177 0 254 -119q40 -62 49 -158h-102z"></glyph><glyph glyph-name="commaturnedabovecmb" unicode="̒" d="M-463 1389q-55 -9 -83.5 -62t-28.5 -123q0 -6 0.5 -11.5t2.5 -12.5h109v-218h-214v201q0 119 50 212.5t164 107.5v-94z"></glyph><glyph glyph-name="commaabovecmb" unicode="̓" d="M-677 1042q55 9 83.5 62t28.5 122q0 7 -0.5 12.5t-2.5 12.5h-109v218h214v-201q0 -128 -53 -217.5t-161 -102.5v94z"></glyph><glyph glyph-name="commareversedabovecmb" unicode="̔" d="M-463 948q-108 13 -161 102.5t-53 217.5v201h214v-218h-109q-2 -7 -2.5 -12.5t-0.5 -12.5q0 -69 28.5 -122t83.5 -62v-94z"></glyph><glyph glyph-name="commaaboverightcmb" unicode="̕" d="M-677 1042q55 9 83.5 62t28.5 122q0 7 -0.5 12.5t-2.5 12.5h-109v218h214v-201q0 -128 -53 -217.5t-161 -102.5v94z"></glyph><glyph glyph-name="gravebelowcmb" unicode="̖" d="M-367 -387h-137l-268 289h223z"></glyph><glyph glyph-name="acutebelowcmb" unicode="̗" d="M-367 -98l-267 -289h-138l183 289h222z"></glyph><glyph glyph-name="lefttackbelowcmb" unicode="̘" d="M-394 -383h-436v86h436v218h84v-522h-84v218z"></glyph><glyph glyph-name="righttackbelowcmb" unicode="̙" d="M-746 -601h-84v522h84v-218h436v-86h-436v-218z"></glyph><glyph glyph-name="uni031A" unicode="̚" d="M-309 1401v-300h-84v216h-437v84h521z"></glyph><glyph glyph-name="horncmb" unicode="̛" d="M-787 1132q37 -59 126 -42q48 3 87 19l11 5.5t10 7.5l-41 100l201 84l82 -198l-187 -77q-109 -46 -211 -41t-119 44z"></glyph><glyph glyph-name="ringhalfleftbelowcmb" unicode="̜" d="M-465 -392q-86 0 -147.5 61.5t-61.5 147.5t61.5 147.5t147.5 61.5v-83q-52 0 -89 -37t-37 -89t37 -89t89 -37v-83v0z"></glyph><glyph glyph-name="uptackbelowcmb" unicode="̝" d="M-613 -516v436h86v-436h218v-84h-522v84h218z"></glyph><glyph glyph-name="downtackbelowcmb" unicode="̞" d="M-831 -164v84h522v-84h-218v-436h-86v436h-218z"></glyph><glyph glyph-name="plusbelowcmb" unicode="̟" d="M-831 -381v84h218v220h86v-220h218v-84h-218v-219h-86v219h-218z"></glyph><glyph glyph-name="minusbelowcmb" unicode="̠" d="M-890 -200h640v-118h-640v118z"></glyph><glyph glyph-name="uni0321" unicode="̡" d="M-657 -415q60 2 72.5 10.5t12.5 54.5v363h90v-372q0 -59 -19 -88q-32 -49 -120 -49q-6 0 -13.5 0.5t-22.5 2.5v78z"></glyph><glyph glyph-name="uni0322" unicode="̢" d="M-482 -493q-15 -2 -22.5 -2.5t-13.5 -0.5q-88 0 -120 49q-19 29 -19 88v372h90v-363q0 -46 12.5 -54.5t72.5 -10.5v-78z"></glyph><glyph glyph-name="dotbelowcmb" unicode="̣" d="M-663 -155h187v-208h-187v208z"></glyph><glyph glyph-name="dieresisbelowcmb" unicode="̤" d="M-498 -155h187v-208h-187v208zM-828 -155h187v-208h-187v208z"></glyph><glyph glyph-name="ringbelowcmb" unicode="̥" d="M-570 -309q52 0 89 37t37 89t-37 89t-89 37q-51 0 -88 -37t-37 -89t37 -89t88 -37zM-570 26q86 0 147.5 -61.5t61.5 -147.5t-61.5 -147.5t-147.5 -61.5t-147 61.5t-61 147.5t61 147.5t147 61.5z"></glyph><glyph glyph-name="commaaccent" unicode="̦" d="M-677 -558q55 9 83.5 62t28.5 122q0 7 -0.5 12.5t-2.5 12.5h-109v218h214v-201q0 -128 -53 -217.5t-161 -102.5v94z"></glyph><glyph glyph-name="cedillacmb" unicode="̧" d="M-589 0h97l-94 -128q29 9 75 9q70 0 115.5 -40.5t45.5 -115.5q0 -76 -60 -131t-184 -55q-53 0 -110 15q-32 8 -86 28l35 81q38 -14 59 -20q41 -11 74 -11q37 0 64 11q52 21 52 76q0 32 -26.5 55.5t-70.5 23.5q-22 0 -39.5 -4t-41.5 -13l-35 41z"></glyph><glyph glyph-name="ogonekcmb" unicode="̨" d="M-402 0l-58 -48q-74 -60 -94.5 -91.5t-20.5 -70.5q0 -37 26.5 -64t77.5 -27q27 0 44 5t37 16v-131q-33 -14 -59 -21q-50 -13 -102 -13q-96 0 -147.5 56t-51.5 126q0 81 58 146q46 52 143 117h147z"></glyph><glyph glyph-name="verticallinebelowcmb" unicode="̩" d="M-621 -142h102v-311h-102v311z"></glyph><glyph glyph-name="uni032A" unicode="̪" d="M-189 -15v-302h-74v217h-614v-217h-74v302h762z"></glyph><glyph glyph-name="dblarchinvertedbelowcmb" unicode="̫" d="M-1060 -100q16 -65 47 -98q56 -59 174 -59q109 0 163 59q29 32 45 90q0 4 -1 8h102q16 -65 47 -98q56 -59 174 -59q109 0 163 59q31 34 47 98h99q-20 -147 -103.5 -212t-225.5 -65q-177 0 -254 119v1q-22 -32 -50 -55q-84 -65 -226 -65q-177 0 -254 119q-40 62 -49 158 h102z"></glyph><glyph glyph-name="caronbelowcmb" unicode="̬" d="M-475 -387h-190l-203 289h163l135 -192l135 192h164z"></glyph><glyph glyph-name="circumflexbelowcmb" unicode="̭" d="M-475 -98l204 -289h-164l-135 192l-135 -192h-163l203 289h190z"></glyph><glyph glyph-name="brevebelowcmb" unicode="̮" d="M-784 -100q16 -65 47 -98q56 -59 174 -59q109 0 163 59q31 34 47 98h99q-20 -147 -103.5 -212t-225.5 -65q-177 0 -254 119q-40 62 -49 158h102z"></glyph><glyph glyph-name="breveinvertedbelowcmb" unicode="̯" d="M-356 -378q-16 65 -47 98q-56 59 -174 59q-109 0 -163 -59q-31 -34 -47 -98h-99q20 147 103.5 212t225.5 65q177 0 254 -119q40 -62 49 -158h-102z"></glyph><glyph glyph-name="tildebelowcmb" unicode="̰" d="M-521 -197q28 -12 51 -19t47 -7q56 0 80 35q13 19 18 57h105q-21 -127 -80.5 -175t-130.5 -48q-22 0 -56 8t-60 18l-53 19q-47 17 -76.5 25.5t-57.5 8.5q-35 0 -57.5 -23t-30.5 -70h-98q13 79 43 129q57 92 169 92q34 0 75.5 -10t111.5 -40z"></glyph><glyph glyph-name="macronbelowcmb" unicode="̱" d="M-890 -200h640v-118h-640v118z"></glyph><glyph glyph-name="lowlinecmb" unicode="̲" d="M-922 -200h704v-118h-704v118z"></glyph><glyph glyph-name="dbllowlinecmb" unicode="̳" d="M-922 -200h704v-118h-704v118zM-922 -430h704v-118h-704v118z"></glyph><glyph glyph-name="tildeoverlaycmb" unicode="̴" d="M-521 603q28 -12 51 -19t47 -7q56 0 80 35q13 19 18 57h105q-21 -127 -80.5 -175t-130.5 -48q-22 0 -56 8t-60 18l-53 19q-47 17 -76.5 25.5t-57.5 8.5q-35 0 -57.5 -23t-30.5 -70h-98q13 79 43 129q57 92 169 92q34 0 75.5 -10t111.5 -40z"></glyph><glyph glyph-name="strokeshortoverlaycmb" unicode="̵" d="M-890 600h640v-118h-640v118z"></glyph><glyph glyph-name="strokelongoverlaycmb" unicode="̶" d="M-922 600h704v-118h-704v118z"></glyph><glyph glyph-name="solidusshortoverlaycmb" unicode="̷" d="M-413 1085h152l-466 -735h-152z"></glyph><glyph glyph-name="soliduslongoverlaycmb" unicode="̸" d="M-413 1469h152l-466 -1469h-152z"></glyph><glyph glyph-name="ringhalfrightbelowcmb" unicode="̹" d="M-674 -392v83q52 0 89 37t37 89t-37 89t-89 37v83q86 0 147.5 -61.5t61.5 -147.5t-61.5 -147.5t-147.5 -61.5z"></glyph><glyph glyph-name="uni033A" unicode="̺" d="M-951 -317v302h74v-217h614v217h74v-302h-762z"></glyph><glyph glyph-name="squarebelowcmb" unicode="̻" d="M-831 -31h522v-522h-522v522zM-394 -479v374h-352v-374h352z"></glyph><glyph glyph-name="seagullbelowcmb" unicode="̼" d="M-636 -377q-14 68 -43 98q-56 59 -174 59q-109 0 -163 -59q41 179 183 179q173 0 250 -113q78 113 250 113q142 0 183 -179q-54 59 -163 59q-118 0 -174 -59q-28 -30 -36 -62t-7 -36h-106v0z"></glyph><glyph glyph-name="uni033D" unicode="̽" d="M-819 1582l59 59l189 -190l190 190l61 -59l-190 -190l190 -190l-61 -60l-190 189l-189 -189l-59 60l189 190z"></glyph><glyph glyph-name="tildeverticalcmb" unicode="̾" d="M-622 1301q-30 70 -40 111.5t-10 75.5q0 112 92 169q50 30 129 43v-98q-47 -8 -70 -30.5t-23 -57.5q0 -28 8.5 -57.5t25.5 -76.5l19 -53q10 -26 18 -60t8 -56q0 -71 -48 -130.5t-175 -80.5v105q38 5 57 18q35 24 35 80q0 24 -7 47t-19 51z"></glyph><glyph glyph-name="dbloverlinecmb" unicode="̿" d="M-922 1400h704v-118h-704v118zM-922 1170h704v-118h-704v118z"></glyph><glyph glyph-name="gravetonecmb" unicode="̀" d="M-367 1213h-137l-268 289h223z"></glyph><glyph glyph-name="acutetonecmb" unicode="́" d="M-367 1502l-267 -289h-138l183 289h222z"></glyph></font>
</defs>
</svg>
